За последнюю неделю опубликовано 57 новых материалов.
Инструкция новичку Путеводитель по форуму Прокси для Telegram Показать подсказки , это бомба!

Скачать Ржавчина / Развращенность / Ferrugem (2018) WEBRip 720p | L2 бесплатно через торрент

  • Поучаствуй (в качестве покупателя) в любых пяти совместных покупках (кроме завершённых и "Моментальных") и получи группу "Новичок" навсегда -> ссылка на раздел
  • Получай до 480 рублей за каждого приглашенного пользователя!
    представляем Вам очередное расширение партнерской программы, подробности описаны тут -> ссылка
  • 90% материалов доступно к скачиванию после простой регистрации!
    Если же ты хочешь скачивать материалы без требования оставлять отзывы то получи группу "Новичок", 10 способов повышения описаны тут -> ссылка
  • К сожалению количество битых ссылок растет и мы уже не можем их оперативно восстанавливать поэтому просим помощи у каждого нашего пользователя.
    С сегодняшнего дня, за каждую восстановленную ссылку мы заплатим Вам.
    Подробнее тут -> ссылка
  • Перенесем твои заслуги с другого ресурса!
    Мы понимаем как сложно прокачивать аккаунты на форумах, вроде раскачал аккаунт, а тут появляется ресурс в 100 раз круче но тоже с системой прокачки и снова качать аккаунт...
    Предлагаем вам перенести Ваши заслуги на другом подобном ресурсе к нам.
    Подробности описаны тут -> ссылка
  • Вы можете получать по 2.5% с каждой покупки и продажи на маркете! Подробности в теме Партнёрская программа
Если Вы не хотите скачивать, Вы всегда можетепосмотретьонлайн, просто нажмите кнопку ниже :

Открыть плеер

Torrent_Bot

Торрент-Бот
Бот форума
4 Окт 2016
92
163
20



Информация о фильме
Название: Ржавчина / Развращенность
Оригинальное название: Ferrugem
Год выхода: 2018
Жанр: драма
Режиссер: Али Муритиба
В ролях: Джованни де Лоренци, Тифани Допке, Энрике Диас, Кларисса Кисте, Педро Иноуэ, Дуда Азеведо, Виктор Гюго Амарал, Игорь Августо

О фильме:
Ни один совместный вечер Тати и Рене, учеников старшей школы, не обходится без новой публичной фотографии или видео. Но отношения быстро заканчиваются, а память о них будет жить еще долго: Тати теряет телефон, и вскоре узнает, что их интимное видео посмотрела вся школа.
ПРИСУТСТВУЕТ НЕНОРМАТИВНАЯ ЛЕКСИКА



Страна: Бразилия
Студия: Grafo Audiovisual
Продолжительность: 01:39:44
Перевод: Любительский двухголосый, закадровый [datynet & Rimma. Перевод: Куценко]

Файл
Кодек: H.264
Качество: WEBRip 720p
Видео: AVC, 1280x536 (2.40:1), 24 fps ~ 2500 Kbps
Звук:
AC3, 48 KHz, 2 ch ~ 192 Kb/s (русский)
AC3, 48 KHz, 2 ch ~ 192 Kb/s (португальский)
Субтитры: отсутствуют

MI:
General
Unique ID : 193053061023720997808018344636440765050 (0x913CAAC7990691238F36EDBEC355E27A)
Complete name : J:wotFerrugem.2018.720p.WEBRip.x264-gooz.mkv
Format : Matroska
Format version : Version 4 / Version 2
File size : 2.01 GiB
Duration : 1h 39mn
Overall bit rate : 2 884 Kbps
Encoded date : UTC 2020-06-03 09:32:44
Writing application : mkvmerge v7.7.0 ('Six Voices') 32bit built on Feb 28 2015 23:23:00
Writing library : Lavf58.11.101
COMMENT : Ripped by gooz
DURATION : 01:39:44.160000000
NUMBER_OF_FRAMES : 187005
NUMBER_OF_BYTES : 143619840
_STATISTICS_WRITING_APP : mkvmerge v7.7.0 ('Six Voices') 32bit built on Feb 28 2015 23:23:00
_STATISTICS_WRITING_DATE_UTC : 2020-06-03 09:32:44
_STATISTICS_TAGS : BPS DURATION NUMBER_OF_FRAMES NUMBER_OF_BYTES

Video
ID : 1
Format : AVC
Format/Info : Advanced Video Codec
Format profile : [email protected]
Format settings, CABAC : Yes
Format settings, ReFrames : 8 frames
Codec ID : V_MPEG4/ISO/AVC
Duration : 1h 39mn
Bit rate : 2 500 Kbps
Width : 1 280 pixels
Height : 536 pixels
Display aspect ratio : 2.40:1
Frame rate mode : Constant
Frame rate : 24.000 fps
Color space : YUV
Chroma subsampling : 4:2:0
Bit depth : 8 bits
Scan type : Progressive
Bits/(Pixel*Frame) : 0.152
Stream size : 1.70 GiB (85%)
Writing library : x264 core 155 r2901 7d0ff22
Encoding settings : cabac=1 / ref=8 / deblock=1:-2:-2 / analyse=0x3:0x133 / me=umh / subme=9 / psy=1 / psy_rd=1.00:0.00 / mixed_ref=1 / me_range=24 / chroma_me=1 / trellis=2 / 8x8dct=1 / cqm=0 / deadzone=21,11 / fast_pskip=0 / chroma_qp_offset=-2 / threads=12 / lookahead_threads=1 / sliced_threads=0 / nr=0 / decimate=1 / interlaced=0 / bluray_compat=0 / constrained_intra=0 / bframes=5 / b_pyramid=2 / b_adapt=2 / b_bias=0 / direct=3 / weightb=1 / open_gop=0 / weightp=2 / keyint=250 / keyint_min=24 / scenecut=40 / intra_refresh=0 / rc_lookahead=60 / rc=2pass / mbtree=1 / bitrate=2500 / ratetol=1.0 / qcomp=0.60 / qpmin=0 / qpmax=69 / qpstep=4 / cplxblur=20.0 / qblur=0.5 / ip_ratio=1.40 / aq=1:1.00
Language : bra
Default : Yes
Forced : No
_STATISTICS_WRITING_APP : mkvmerge v7.7.0 ('Six Voices') 32bit built on Feb 28 2015 23:23:00
_STATISTICS_WRITING_DATE_UTC : 2020-06-03 09:32:44
_STATISTICS_TAGS : BPS DURATION NUMBER_OF_FRAMES NUMBER_OF_BYTES
DURATION : 01:39:40.000000000
NUMBER_OF_FRAMES : 143520
NUMBER_OF_BYTES : 1868813901

Audio #1
ID : 2
Format : AC-3
Format/Info : Audio Coding 3
Mode extension : CM (complete main)
Format settings, Endianness : Big
Codec ID : A_AC3
Duration : 1h 39mn
Bit rate mode : Constant
Bit rate : 192 Kbps
Channel(s) : 2 channels
Channel positions : Front: L R
Sampling rate : 48.0 KHz
Compression mode : Lossy
Delay relative to video : -42ms
Stream size : 137 MiB (7%)
Title : DVO
Writing library : Lavc58.17.100 ac3
Language : Russian
Default : Yes
Forced : No
_STATISTICS_WRITING_APP : mkvmerge v7.7.0 ('Six Voices') 32bit built on Feb 28 2015 23:23:00
_STATISTICS_WRITING_DATE_UTC : 2020-06-03 09:32:44
_STATISTICS_TAGS : BPS DURATION NUMBER_OF_FRAMES NUMBER_OF_BYTES
DURATION : 01:39:39.998000000
NUMBER_OF_FRAMES : 186875
NUMBER_OF_BYTES : 143520000

Audio #2
ID : 3
Format : AC-3
Format/Info : Audio Coding 3
Mode extension : CM (complete main)
Format settings, Endianness : Big
Codec ID : A_AC3
Duration : 1h 39mn
Bit rate mode : Constant
Bit rate : 192 Kbps
Channel(s) : 2 channels
Channel positions : Front: L R
Sampling rate : 48.0 KHz
Compression mode : Lossy
Delay relative to video : -36ms
Stream size : 137 MiB (7%)
Language : Portuguese
Default : No
Forced : No

Скриншоты
 

Вложения

  • 10,9 KB Просмотры: 0
    Личеров 0
    Сидеров 0
    Файлов 1
    Объем 2 GB

Привет!

Мы группа людей которые решили помочь другим в решении их проблем, а так же пользователям с поиском самых свежих и качественных инфопродуктов. За 4 с небольшим месяца мы создали этот форум на который заходят ежедневно тысячи человек и посещаемость постоянно растёт. Мы создали панель лицензирования для защиты PHP скриптов от воровства и SEO панель для мониторинга наших сайтов и выбора верной стратегии их развития. Мы надеемся что то что мы создали пригодится Вам и возможно Вы поможете нам развиваться и совершенствоваться вместе с Вами.

Статистика форума

Темы
406.698
Сообщения
465.162
Пользователи
84.793
Новый пользователь
vt7x2fyxlzwd

Приложения форума для iOS и Android


У ркн там нет власти ;)
Приватные разговоры
Помощь Пользователи
    Вы не присоединились ни к одной комнате.