За последнюю неделю опубликовано 57 новых материалов.
Инструкция новичку Путеводитель по форуму Прокси для Telegram Показать подсказки , это бомба!

Скачать Рыжеволосые из Сиэтла / Those Redheads from Seattle (1953) BDRip 1080p от Ash61 | 3D-Video | halfOU | L1 бесплатно через торрент

  • Поучаствуй (в качестве покупателя) в любых пяти совместных покупках (кроме завершённых и "Моментальных") и получи группу "Новичок" навсегда -> ссылка на раздел
  • Получай до 480 рублей за каждого приглашенного пользователя!
    представляем Вам очередное расширение партнерской программы, подробности описаны тут -> ссылка
  • 90% материалов доступно к скачиванию после простой регистрации!
    Если же ты хочешь скачивать материалы без требования оставлять отзывы то получи группу "Новичок", 10 способов повышения описаны тут -> ссылка
  • К сожалению количество битых ссылок растет и мы уже не можем их оперативно восстанавливать поэтому просим помощи у каждого нашего пользователя.
    С сегодняшнего дня, за каждую восстановленную ссылку мы заплатим Вам.
    Подробнее тут -> ссылка
  • Перенесем твои заслуги с другого ресурса!
    Мы понимаем как сложно прокачивать аккаунты на форумах, вроде раскачал аккаунт, а тут появляется ресурс в 100 раз круче но тоже с системой прокачки и снова качать аккаунт...
    Предлагаем вам перенести Ваши заслуги на другом подобном ресурсе к нам.
    Подробности описаны тут -> ссылка
  • Вы можете получать по 2.5% с каждой покупки и продажи на маркете! Подробности в теме Партнёрская программа
Если Вы не хотите скачивать, Вы всегда можетепосмотретьонлайн, просто нажмите кнопку ниже :

Открыть плеер

Torrent_Bot

Торрент-Бот
Бот форума
4 Окт 2016
92
163
20

Рыжеволосые из Сиэтла
Those Redheads from Seattle


Год выпуска: 1953
Страна: США (Pine-Thomas Productions, Paramount Pictures)
Жанр: Мелодрама, мюзикл, вестерн
Продолжительность: 01:30:35

Озвучка: Любительская одноголосая закадровая - NoNamed (перевод любительский - Ash61)

Режиссер: Льюис Р. Фостер / Lewis R. Foster



В ролях: Ронда Флеминг (Кэти Эдмондс), Джин Бэрри (Джонни Киско), Агнес Мурхед (миссис Эдмондс), Тереза Брюэр (Пэт Эдмондс), Гай Митчелл (Джо Кинэн), Cynthia Strother (Конни Эдмондс), Kay Strother (Нелл Эдмондс), Джин Паркер (Лиз), Роско Эйтс (Дэн Тейлор), Джон Келлогг (Майк Юркил), Фрэнк Уилкокс (Вэнс Эдмондс), Уолтер Рид (Уайти Маркс), Уильям Пуллен (преподобный Луис Петри)



Описание: Женщина едет со своими четырьмя прекрасными дочерями к мужу в Доусон-Сити, Юкон, во времена Золотой лихорадки, чтобы они нашли своё счастье.



Доп. инфо: Фильм отреставрирован 3-D Film Archive.



Премьера (мир): 16 октября 1953




Качество: BDRip (by Ash61)
Контейнер: MKV
Формат 3D: Half OverUnder / Вертикальная анаморфная стереопара
Порядок ракурсов: левый ракурс первый



Видео: AVC / 1920х1080p / 23,976 fps / 18.0 Mbps

Аудио:
#1 - Русский / AC3 / 48 KHz / 3.0 ch / 640 Kbps (VO - NoNamed)
#2 - Английский / AC3 / 48 KHz / 3.0 ch / 640 Kbps (Original - 3D Version)

Субтитры: Отсутствуют

MediaInfo
General
Unique ID : 241895333426835885501094456003531037808 (0xB5FB58BB2220FA929D0E2E06C232DC70)
Complete name : D:ThoseRedheadsFromSeattle(1953)3D-hOU(Ash61)VO.mkv
Format : Matroska
Format version : Version 2
File size : 12.2 GiB
Duration : 1 h 30 min
Overall bit rate : 19.3 Mb/s
Movie name : Рыжеволосые из Сиэтла / Those Redheads from Seattle (1953) in 3D
Encoded date : UTC 2020-08-07 11:34:15
Writing application : mkvmerge v5.8.0 ('No Sleep / Pillow') built on Sep 2 2012 15:37:04
Writing library : libebml v1.2.3 + libmatroska v1.3.0

Video
ID : 1
Format : AVC
Format/Info : Advanced Video Codec
Format profile : [email protected]
Format settings : CABAC / 4 Ref Frames
Format settings, CABAC : Yes
Format settings, Reference : 4 frames
Codec ID : V_MPEG4/ISO/AVC
Duration : 1 h 30 min
Bit rate : 18.0 Mb/s
Width : 1 920 pixels
Height : 1 080 pixels
Display aspect ratio : 16:9
Frame rate mode : Constant
Frame rate : 23.976 (24000/1001) FPS
Color space : YUV
Chroma subsampling : 4:2:0
Bit depth : 8 bits
Scan type : Progressive
Bits/(Pixel*Frame) : 0.362
Stream size : 11.1 GiB (91%)
Title : BDRip by Ash61
Writing library : x264 core 146 r2538 121396c
Encoding settings : cabac=1 / ref=4 / deblock=1:-3:-3 / analyse=0x3:0x113 / me=umh / subme=10 / psy=1 / psy_rd=1.00:0.00 / mixed_ref=1 / me_range=32 / chroma_me=1 / trellis=2 / 8x8dct=1 / cqm=0 / deadzone=21,11 / fast_pskip=0 / chroma_qp_offset=-2 / threads=12 / lookahead_threads=3 / sliced_threads=0 / nr=0 / decimate=0 / interlaced=0 / bluray_compat=0 / constrained_intra=0 / bframes=12 / b_pyramid=2 / b_adapt=2 / b_bias=0 / direct=3 / weightb=1 / open_gop=0 / weightp=2 / keyint=250 / keyint_min=23 / scenecut=40 / intra_refresh=0 / rc_lookahead=60 / rc=2pass / mbtree=0 / bitrate=18000 / ratetol=1.0 / qcomp=0.70 / qpmin=0 / qpmax=69 / qpstep=4 / cplxblur=20.0 / qblur=0.5 / vbv_maxrate=40000 / vbv_bufsize=30000 / nal_hrd=none / filler=0 / frame-packing=4 / ip_ratio=1.40 / pb_ratio=1.30 / aq=1:0.70
Language : English
Default : Yes
Forced : No

Audio #1
ID : 2
Format : AC-3
Format/Info : Audio Coding 3
Commercial name : Dolby Digital
Codec ID : A_AC3
Duration : 1 h 30 min
Bit rate mode : Constant
Bit rate : 640 kb/s
Channel(s) : 3 channels
Channel layout : L R C
Sampling rate : 48.0 kHz
Frame rate : 31.250 FPS (1536 SPF)
Compression mode : Lossy
Stream size : 415 MiB (3%)
Title : Любительский одноголосый закадровый - NoNamed (перевод любительский - Ash61)
Language : Russian
Service kind : Complete Main
Default : Yes
Forced : No

Audio #2
ID : 3
Format : AC-3
Format/Info : Audio Coding 3
Commercial name : Dolby Digital
Codec ID : A_AC3
Duration : 1 h 30 min
Bit rate mode : Constant
Bit rate : 640 kb/s
Channel(s) : 3 channels
Channel layout : L R C
Sampling rate : 48.0 kHz
Frame rate : 31.250 FPS (1536 SPF)
Compression mode : Lossy
Stream size : 415 MiB (3%)
Title : Original (BD 3D) (+11.9 dB)
Language : English
Service kind : Complete Main
Default : No
Forced : No

Menu
00:00:00.000 : : 1. Main Title
00:08:26.131 : : 2. Mr. Banjo Man
00:16:40.625 : : 3. Take Back Your Gold
00:29:39.903 : : 4. Love in Bloom
00:40:48.738 : : 5. Chick-A-Boom
00:46:45.720 : : 6. Intermission
00:54:37.399 : : 7. Grim Realization
01:03:34.185 : : 8. Baby, Baby, Baby
01:09:25.703 : : 9. I Guess it Was You All the Time
01:24:57.884 : : 10. Relentless Pursuit
Скриншоты
Для оценки 3Д - Анимированные скриныКаталог фильмов, выходивших в 3Д, со ссылками (вер. 28.01.2020)



О форматах и методах просмотра 3D


 

Вложения

  • 61,9 KB Просмотры: 0
    Личеров 0
    Сидеров 0
    Файлов 1
    Объем 12,2 GB

Привет!

Мы группа людей которые решили помочь другим в решении их проблем, а так же пользователям с поиском самых свежих и качественных инфопродуктов. За 4 с небольшим месяца мы создали этот форум на который заходят ежедневно тысячи человек и посещаемость постоянно растёт. Мы создали панель лицензирования для защиты PHP скриптов от воровства и SEO панель для мониторинга наших сайтов и выбора верной стратегии их развития. Мы надеемся что то что мы создали пригодится Вам и возможно Вы поможете нам развиваться и совершенствоваться вместе с Вами.

Статистика форума

Темы
406.699
Сообщения
465.164
Пользователи
84.823
Новый пользователь
servet2510

Приложения форума для iOS и Android


У ркн там нет власти ;)
Приватные разговоры
Помощь Пользователи
    Вы не присоединились ни к одной комнате.