За последнюю неделю опубликовано 30 новых материалов.
Инструкция новичку Путеводитель по форуму Прокси для Telegram Показать подсказки , это бомба!

Скачать Рыцари королевства Крутизны / Knights of Badassdom (2013) BDRemux 1080р | P, A бесплатно через торрент

  • Поучаствуй (в качестве покупателя) в любых пяти совместных покупках (кроме завершённых и "Моментальных") и получи группу "Новичок" навсегда -> ссылка на раздел
  • Получай до 480 рублей за каждого приглашенного пользователя!
    представляем Вам очередное расширение партнерской программы, подробности описаны тут -> ссылка
  • 90% материалов доступно к скачиванию после простой регистрации!
    Если же ты хочешь скачивать материалы без требования оставлять отзывы то получи группу "Новичок", 10 способов повышения описаны тут -> ссылка
  • К сожалению количество битых ссылок растет и мы уже не можем их оперативно восстанавливать поэтому просим помощи у каждого нашего пользователя.
    С сегодняшнего дня, за каждую восстановленную ссылку мы заплатим Вам.
    Подробнее тут -> ссылка
  • Перенесем твои заслуги с другого ресурса!
    Мы понимаем как сложно прокачивать аккаунты на форумах, вроде раскачал аккаунт, а тут появляется ресурс в 100 раз круче но тоже с системой прокачки и снова качать аккаунт...
    Предлагаем вам перенести Ваши заслуги на другом подобном ресурсе к нам.
    Подробности описаны тут -> ссылка
  • Вы можете получать по 2.5% с каждой покупки и продажи на маркете! Подробности в теме Партнёрская программа
Если Вы не хотите скачивать, Вы всегда можетепосмотретьонлайн, просто нажмите кнопку ниже :

Открыть плеер

Torrent_Bot

Торрент-Бот
Бот форума
4 Окт 2016
93
155
20
Информация о фильме
Название: Рыцари королевства Крутизны
Оригинальное название: Knights of Badassdom
Год выхода: 2013
Жанр: боевик, приключения, комедия
Режиссер: Джо Линч
В ролях: Райан Квантен, Стив Зан, Питер Динклэйдж, Саммер Глау, Маргарита Левиева, Том Хоппер, Джимми Симпсон, Дэнни Пуди, Джошуа Малина, У. Эрл Браун

Описание: Джо кидает девушка, и поэтому его друзья, повернутые на ролевых играх Эрик и Ханг, предлагают пыхнуть кальянчика и расслабиться. В итоге Джо просыпается в грузовике, разодетый в рыцаря в эпицентре ролевой игры. Дружбаны уговаривают его провести этот ролевой день с ними, чтобы Джо забыл свою девушку. Далее Эрик, сам того не зная, вызывает демона при помощи книги, купленной в интернете, и теперь друзьям нужно победить этого демона, спасти целое поле народа и самим не погибнуть…



Страна: США
Продолжительность: 01:25:27
Перевод 1: Профессиональный (многоголосый закадровый) ТНТ
Перевод 2: Любительский (многоголосый закадровый) ViruseProject
Субтитры: русские (Kintar & Co), английские SDH
Оригинальная аудиодорожка: английский

Файл
Качество: BDRemux 1080р
Видео: MPEG-4 AVC / 28323 kbps / 1920x1080 / 23,976 fps / 16:9 / High Profile 4.1
Аудио 1: Russian / AC3 / 2.0 / 48 kHz / 192 kbps / 16 bits |ТНТ|
Аудио 2: Russian / DTS-HD Master Audio / 5.1 / 48 kHz / 2193 kbps / 16 bits (DTS Core: 5.1 / 48 kHz / 1509 kbps / 16 bits) |ViruseProject|
Аудио 3: English / DTS-HD Master Audio / 5.1 / 48 kHz / 2175 kbps / 16 bits (DTS Core: 5.1 / 48 kHz / 1509 kbps / 16 bits) |original|



Скриншоты
MediaInfo
Общее
Уникальный идентификатор : 248680960198584600550025073724395644351 (0xBB1635F5F9CC4DFB962FA7D983A465BF)
Полное имя : G:HDРыцари королевства Крутизны.2014.Blu-Ray.Remux.(1080p).mkv
Формат : Matroska
Версия формата : Version 4 / Version 2
Размер файла : 19,6 Гбайт
Продолжительность : 1 ч. 25 м.
Режим общего битрейта : Переменный
Общий поток : 32,9 Мбит/сек
Дата кодирования : UTC 2016-02-27 20:38:12
Программа кодирования : mkvmerge v8.9.0 ('Father Daughter') 64bit
Библиотека кодирования : libebml v1.3.3 + libmatroska v1.4.4
Attachments : poster.jpg

Видео
Идентификатор : 1
Формат : AVC
Формат/Информация : Advanced Video Codec
Профиль формата : High@L4.1
Параметр CABAC формата : Да
Параметр ReFrames формата : 4 кадра
Идентификатор кодека : V_MPEG4/ISO/AVC
Продолжительность : 1 ч. 25 м.
Вид битрейта : Переменный
Битрейт : 28,3 Мбит/сек
Максимальный битрейт : 37,0 Мбит/сек
Ширина : 1920 пикселей
Высота : 1080 пикселей
Соотношение сторон : 16:9
Режим частоты кадров : Постоянный
Частота кадров : 23,976 (24000/1001) кадра/сек
Стандарт вещания : NTSC
Цветовое пространство : YUV
Субдискретизация насыщенности : 4:2:0
Битовая глубина : 8 бит
Тип развёртки : Прогрессивная
Бит/(Пиксели*Кадры) : 0.570
Размер потока : 16,9 Гбайт (86%)
Default : Да
Forced : Нет
Цветовой диапазон : Limited
Основные цвета : BT.709
Характеристики трансфера : BT.709
Коэффициенты матрицы : BT.709

Аудио #1
Идентификатор : 2
Формат : AC-3
Формат/Информация : Audio Coding 3
Расширение режима : CM (complete main)
Параметр Endianness формата : Big
Идентификатор кодека : A_AC3
Продолжительность : 1 ч. 25 м.
Вид битрейта : Постоянный
Битрейт : 192 Кбит/сек
Каналы : 2 канала
Расположение каналов : Front: L R
Частота : 48,0 КГц
Частота кадров : 31,250 кадров/сек (1536 spf)
Метод сжатия : С потерями
Размер потока : 117 Мбайт (1%)
Заголовок : MVO, ТНТ
Язык : Russian
Default : Нет
Forced : Нет

Аудио #2
Идентификатор : 3
Формат : DTS
Формат/Информация : Digital Theater Systems
Профиль формата : MA / Core
Режим : 16
Параметр Endianness формата : Big
Идентификатор кодека : A_DTS
Продолжительность : 1 ч. 25 м.
Вид битрейта : Переменный / Постоянный
Битрейт : 2192 Кбит/сек / 1509 Кбит/сек
Каналы : 6 каналов
Расположение каналов : Front: L C R, Side: L R, LFE
Частота : 48,0 КГц
Частота кадров : 93,750 кадра/сек (512 spf)
Битовая глубина : 16 бит
Метод сжатия : Без потерь / Lossy
Размер потока : 1,31 Гбайт (7%)
Заголовок : MVO, ViruseProject
Язык : Russian
Default : Да
Forced : Нет

Аудио #3
Идентификатор : 4
Формат : DTS
Формат/Информация : Digital Theater Systems
Профиль формата : MA / Core
Режим : 16
Параметр Endianness формата : Big
Идентификатор кодека : A_DTS
Продолжительность : 1 ч. 25 м.
Вид битрейта : Переменный / Постоянный
Битрейт : 2175 Кбит/сек / 1509 Кбит/сек
Каналы : 6 каналов
Расположение каналов : Front: L C R, Side: L R, LFE
Частота : 48,0 КГц
Частота кадров : 93,750 кадра/сек (512 spf)
Битовая глубина : 16 бит
Метод сжатия : Без потерь / Lossy
Размер потока : 1,30 Гбайт (7%)
Язык : English
Default : Нет
Forced : Нет

Текст #1
Идентификатор : 5
Формат : UTF-8
Идентификатор кодека : S_TEXT/UTF8
Идентификатор кодека/Информация : UTF-8 Plain Text
Продолжительность : 1 ч. 20 м.
Битрейт : 97 бит/сек
Count of elements : 1217
Размер потока : 57,6 Кбайт (0%)
Заголовок : Kintar & Co
Язык : Russian
Default : Нет
Forced : Нет

Текст #2
Идентификатор : 6
Формат : UTF-8
Идентификатор кодека : S_TEXT/UTF8
Идентификатор кодека/Информация : UTF-8 Plain Text
Продолжительность : 1 ч. 24 м.
Битрейт : 63 бит/сек
Count of elements : 1547
Размер потока : 39,7 Кбайт (0%)
Заголовок : SDH
Язык : English
Default : Нет
Forced : Нет

Меню
00:00:00.000 : :Chapter 01
00:05:02.510 : :Chapter 02
00:09:34.824 : :Chapter 03
00:12:56.567 : :Chapter 04
00:18:42.037 : :Chapter 05
00:25:52.801 : :Chapter 06
00:31:01.234 : :Chapter 07
00:35:34.006 : :Chapter 08
00:42:39.473 : :Chapter 09
00:46:58.398 : :Chapter 10
00:52:13.088 : :Chapter 11
00:57:53.344 : :Chapter 12
01:02:52.226 : :Chapter 13
01:10:05.284 : :Chapter 14
01:16:33.130 : :Chapter 15
01:20:48.802 : :Chapter 16
 

Вложения

  • 50 KB Просмотры: 1
    Личеров 0
    Сидеров 0
    Файлов 1
    Объем 19,6 GB

Привет!

Мы группа людей которые решили помочь другим в решении их проблем, а так же пользователям с поиском самых свежих и качественных инфопродуктов. За 4 с небольшим месяца мы создали этот форум на который заходят ежедневно тысячи человек и посещаемость постоянно растёт. Мы создали панель лицензирования для защиты PHP скриптов от воровства и SEO панель для мониторинга наших сайтов и выбора верной стратегии их развития. Мы надеемся что то что мы создали пригодится Вам и возможно Вы поможете нам развиваться и совершенствоваться вместе с Вами.

Статистика форума

Темы
406.541
Сообщения
464.666
Пользователи
83.323
Новый пользователь
Mks16

Приложения форума для iOS и Android


У ркн там нет власти ;)
Приватные разговоры
Помощь Пользователи
    Вы не присоединились ни к одной комнате.