За последнюю неделю опубликовано 172 новых материалов.
Инструкция новичку Путеводитель по форуму Прокси для Telegram Показать подсказки , это бомба!

Скачать Рыцарь перед Рождеством / The Knight Before Christmas (2019) WEBRip-AVC | L | Flarrow Films бесплатно через торрент

  • Поучаствуй (в качестве покупателя) в любых пяти совместных покупках (кроме завершённых и "Моментальных") и получи группу "Новичок" навсегда -> ссылка на раздел
  • Получай до 480 рублей за каждого приглашенного пользователя!
    представляем Вам очередное расширение партнерской программы, подробности описаны тут -> ссылка
  • 90% материалов доступно к скачиванию после простой регистрации!
    Если же ты хочешь скачивать материалы без требования оставлять отзывы то получи группу "Новичок", 10 способов повышения описаны тут -> ссылка
  • К сожалению количество битых ссылок растет и мы уже не можем их оперативно восстанавливать поэтому просим помощи у каждого нашего пользователя.
    С сегодняшнего дня, за каждую восстановленную ссылку мы заплатим Вам.
    Подробнее тут -> ссылка
  • Перенесем твои заслуги с другого ресурса!
    Мы понимаем как сложно прокачивать аккаунты на форумах, вроде раскачал аккаунт, а тут появляется ресурс в 100 раз круче но тоже с системой прокачки и снова качать аккаунт...
    Предлагаем вам перенести Ваши заслуги на другом подобном ресурсе к нам.
    Подробности описаны тут -> ссылка
  • Вы можете получать по 2.5% с каждой покупки и продажи на маркете! Подробности в теме Партнёрская программа
Если Вы не хотите скачивать, Вы всегда можетепосмотретьонлайн, просто нажмите кнопку ниже :

Открыть плеер

Torrent_Bot

Торрент-Бот
Бот форума
4 Окт 2016
124
94
20



Информация о фильме
Название: Рыцарь перед Рождеством
Оригинальное название: The Knight Before Christmas
Год выпуска: 2019
Жанр: Мелодрама, фэнтези
Режиссер: Моника Митчелл
В ролях: Ванесса Энн Хадженс, Эммануэль Шрики, Джош Уайтхаус, Гарри Джарвис, Мими Джианопулос, Элла Кеньон, Андреа Сеньор, Джейкоб Соли, Оливия Гуданец, Телиса Чандлер

О фильме:
Колдунья переносит доблестного рыцаря Коула в Огайо наших дней, жители которого активно готовятся к Рождеству. Здесь он знакомится с умницей и красавицей Брук, которая разочаровалась в любви. Девушка помогает ему приспособиться к современному миру и разобраться, как попасть обратно домой. Но чем больше сэр Коул узнает Брук, тем сильнее сомневается в том, хочет ли он возвращаться. «Рыцарь перед Рождеством» — романтическая мелодрама о средневековом рыцаре, который попадает в современный мир.



Страна: США
Студия: Motion Picture Corporation of America
Продолжительность: 01:32:39
Перевод: Любительский многоголосый [Flarrow Films]
Субтитры: Russian, English

Файл
Формат: Matroska
Качество: WEBRip-AVC
Видео: 960x480 at 24.00 fps, x264, ~2049 kbps, 0.185 bpp
Аудио: AC3, 2 ch, ~192 kbps - | Русский | -
Формат субтитров: softsub (SRT)

***Релиз от:-=DoMiNo=-

M/I
x264 [info]: frame I:1226 Avg QP:14.77 size:100718
x264 [info]: frame P:31286 Avg QP:18.78 size: 26581
x264 [info]: frame B:100898 Avg QP:22.71 size: 4336
x264 [info]: consecutive B-frames: 3.1% 3.8% 10.2% 22.4% 16.6% 38.5% 2.2% 0.6% 0.5% 0.4% 0.3% 0.3% 1.1%

General
Format : Matroska
Format version : Version 4
File size : 1.44 GiB
Duration : 1 h 32 min
Overall bit rate : 2 231 kb/s
Movie name : Рыцарь перед Рождеством.(1987).WEBRip-AVC.[-=DoMiNo=-]
Encoded date : UTC 2019-12-04 17:24:43
Writing application : mkvmerge v40.0.0 ('Old Town Road + Pony') 64-bit
Writing library : libebml v1.3.9 + libmatroska v1.5.2
Attachments : poster.jpg / poster 2.jpg

Video
ID : 1
Format : AVC
Format/Info : Advanced Video Codec
Format profile : High@L4.1
Format settings : CABAC / 12 Ref Frames
Format settings, CABAC : Yes
Format settings, Reference : 12 frames
Codec ID : V_MPEG4/ISO/AVC
Duration : 1 h 32 min
Bit rate : 2 049 kb/s
Width : 960 pixels
Height : 480 pixels
Display aspect ratio : 2.000
Frame rate mode : Constant
Frame rate : 24.000 FPS
Color space : YUV
Chroma subsampling : 4:2:0
Bit depth : 8 bits
Scan type : Progressive
Bits/(Pixel*Frame) : 0.185
Stream size : 1.32 GiB (91%)
Title : RIP_BY_-=DoMiNo=-
Writing library : x264 core 152 r2851kMod ba24899
Encoding settings : cabac=1 / ref=12 / deblock=1:-3:-3 / analyse=0x3:0x133 / me=umh / subme=11 / psy=1 / fade_compensate=0.00 / psy_rd=1.00:0.00 / mixed_ref=1 / me_range=32 / chroma_me=1 / trellis=2 / 8x8dct=1 / cqm=0 / deadzone=21,11 / fast_pskip=0 / chroma_qp_offset=-2 / threads=6 / lookahead_threads=1 / sliced_threads=0 / nr=0 / decimate=0 / interlaced=0 / bluray_compat=0 / constrained_intra=0 / bframes=12 / b_pyramid=2 / b_adapt=2 / b_bias=0 / direct=3 / weightb=1 / open_gop=0 / weightp=2 / keyint=250 / keyint_min=23 / scenecut=40 / intra_refresh=0 / rc_lookahead=60 / rc=2pass / mbtree=1 / bitrate=2049 / ratetol=1.0 / qcomp=0.60 / qpmin=0 / qpmax=69 / qpstep=4 / cplxblur=20.0 / qblur=0.5 / vbv_maxrate=50000 / vbv_bufsize=62500 / nal_hrd=none / filler=0 / ip_ratio=1.40 / aq=1:1.00
Language : English
Default : Yes
Forced : No

Audio
ID : 2
Format : AC-3
Format/Info : Audio Coding 3
Commercial name : Dolby Digital
Codec ID : A_AC3
Duration : 1 h 32 min
Bit rate mode : Constant
Bit rate : 192 kb/s
Channel(s) : 2 channels
Channel layout : L R
Sampling rate : 48.0 kHz
Frame rate : 31.250 FPS (1536 SPF)
Compression mode : Lossy
Stream size : 127 MiB (9%)
Title : L_MVO
Language : Russian
Service kind : Complete Main
Default : Yes
Forced : No

Text #1
ID : 3
Format : UTF-8
Codec ID : S_TEXT/UTF8
Codec ID/Info : UTF-8 Plain Text
Duration : 1 h 31 min
Bit rate : 104 b/s
Count of elements : 1370
Stream size : 70.0 KiB (0%)
Title : Russian
Language : Russian
Default : No
Forced : No

Text #2
ID : 4
Format : UTF-8
Codec ID : S_TEXT/UTF8
Codec ID/Info : UTF-8 Plain Text
Duration : 1 h 27 min
Bit rate : 70 b/s
Count of elements : 1440
Stream size : 45.3 KiB (0%)
Title : English
Language : English
Default : No
Forced : No

Menu
00:00:00.000 : :Глава 01
00:05:30.000 : :Глава 02
00:11:00.000 : :Глава 03
00:16:30.000 : :Глава 04
00:22:00.000 : :Глава 05
00:27:30.000 : :Глава 06
00:33:00.000 : :Глава 07
00:38:30.000 : :Глава 08
00:44:00.000 : :Глава 09
00:49:30.000 : :Глава 10
00:55:00.000 : :Глава 11
01:00:30.000 : :Глава 12
01:06:00.000 : :Глава 13
01:11:30.000 : :Глава 14
01:17:00.000 : :Глава 15
01:22:30.000 : :Глава 16
01:28:00.000 : :Глава 17
Скриншоты
 

Вложения

  • 15,5 KB Просмотры: 0
    Личеров 0
    Сидеров 0
    Файлов 1
    Объем 1,4 GB
Ваш e-mail не будет опубликован. Он потребуется для подтверждения Вашего поста.
Оформление текста Нажмите «Ввод», чтобы отправить ответ.

Привет!

Мы группа людей которые решили помочь другим в решении их проблем, а так же пользователям с поиском самых свежих и качественных инфопродуктов. За 4 с небольшим месяца мы создали этот форум на который заходят ежедневно тысячи человек и посещаемость постоянно растёт. Мы создали панель лицензирования для защиты PHP скриптов от воровства и SEO панель для мониторинга наших сайтов и выбора верной стратегии их развития. Мы надеемся что то что мы создали пригодится Вам и возможно Вы поможете нам развиваться и совершенствоваться вместе с Вами.

Статистика форума

Темы
378.751
Сообщения
418.015
Пользователи
49.668
Новый пользователь
Electro

Приложения форума для iOS и Android


У ркн там нет власти ;)
Приватные разговоры
Помощь Пользователи
    Вы не присоединились ни к одной комнате.