За последнюю неделю опубликовано 0 новых материалов.
Инструкция новичку Путеводитель по форуму Прокси для Telegram Показать подсказки , это бомба!

Скачать Русалочка (1976) DVDRip бесплатно через торрент

  • Поучаствуй (в качестве покупателя) в любых пяти совместных покупках (кроме завершённых и "Моментальных") и получи группу "Новичок" навсегда -> ссылка на раздел
  • Получай до 480 рублей за каждого приглашенного пользователя!
    представляем Вам очередное расширение партнерской программы, подробности описаны тут -> ссылка
  • 90% материалов доступно к скачиванию после простой регистрации!
    Если же ты хочешь скачивать материалы без требования оставлять отзывы то получи группу "Новичок", 10 способов повышения описаны тут -> ссылка
  • К сожалению количество битых ссылок растет и мы уже не можем их оперативно восстанавливать поэтому просим помощи у каждого нашего пользователя.
    С сегодняшнего дня, за каждую восстановленную ссылку мы заплатим Вам.
    Подробнее тут -> ссылка
  • Перенесем твои заслуги с другого ресурса!
    Мы понимаем как сложно прокачивать аккаунты на форумах, вроде раскачал аккаунт, а тут появляется ресурс в 100 раз круче но тоже с системой прокачки и снова качать аккаунт...
    Предлагаем вам перенести Ваши заслуги на другом подобном ресурсе к нам.
    Подробности описаны тут -> ссылка
  • Вы можете получать по 2.5% с каждой покупки и продажи на маркете! Подробности в теме Партнёрская программа
Если Вы не хотите скачивать, Вы всегда можетепосмотретьонлайн, просто нажмите кнопку ниже :

Открыть плеер

Torrent_Bot

Торрент-Бот
Бот форума
4 Окт 2016
79
196
20
Русалочка /1976/ DVDRip / Без реставрации







Информация о фильме:

Название:Русалочка
Год выхода:1976
Жанр:Сказка, Фэнтази, Музыкальный, Семейный



Режиссер:Владимир Бычков
Сценаристы:Ганс Кристиан Андерсен /рассказ/, Владимир Виткович , Григорий Ягдфельд
Оператор:Эмил Вагенштайн
Композитор:Евгений Крылатов



В фильме снимались:
Вика Новикова — Русалочка
Валентин Никулин — Сульпитиус
Галина Артёмова — Принцесса
Сенкевич Юрий Вячеславович — Принц
Галина Волчек — Трактирщица
Стефан Илиев — Рыцарь
Пуговкин, Михаил Иванович — Губастый
С. Моисеенко — Жаклин
М. Чудинова — Леонела
С. Пейчев — Рыбак
Андрей Файт
Михаил Янушкевич — разбойник
Вячеслав Бутенко
и другие...



Описание: Маленькая Русалочка полюбила Принца, однажды спасенного ею во время шторма. Ради этой любви Русалочка пожертвовала многим: она не побоялась покинуть свой дом, вступила в сделку с колдуньей. Колдунья, используя различные магические заклятия, сотворила ей вместо рыбьего хвоста человеческие ноги и сделала так, чтобы Русалочка смогла ходить и жить на земле.



Страна:
Выпущено:Студия Горького / Киностудия БОЯНА
Продолжительность:01:17:51
Перевод:Не требуется
Субтитры:Русские/отдельно, в папке/ VobSub



f0360c5ba832456751a73f45f94a9ebc.gif





MediaInfo
Format : AVI
Format/Info : Audio Video Interleave
File size : 1.09 GiB
Duration : 1h 17mn
Overall bit rate : 2 003 Kbps
Writing application : VirtualDubMod 1.5.10.2 (build 2540/release)

Video
ID : 0
Format : MPEG-4 Visual
Format profile : Advanced [email protected]
Format settings, BVOP : Yes
Format settings, QPel : No
Format settings, GMC : No warppoints
Format settings, Matrix : Default (H.263)
Codec ID : XVID
Codec ID/Hint : XviD
Duration : 1h 17mn
Bit rate : 1 674 Kbps
Width : 704 pixels
Height : 528 pixels
Display aspect ratio : 4:3
Frame rate : 25.000 fps
Color space : YUV
Chroma subsampling : 4:2:0
Bit depth : 8 bits
Scan type : Progressive
Bits/(Pixel*Frame) : 0.180
Stream size : 932 MiB (84%)
Writing library : XviD 1.2.1 (UTC 2008-12-04)

Audio
ID : 1
Format : MPEG Audio
Format version : Version 1
Format profile : Layer 3
Codec ID : 55
Codec ID/Hint : MP3
Duration : 1h 17mn
Bit rate mode : Constant
Bit rate : 320 Kbps
Channel(s) : 2 channels
Sampling rate : 48.0 KHz
Stream size : 178 MiB (16%)
Alignment : Aligned on interleaves
Interleave, duration : 40 ms (1.00 video frame)
Interleave, preload duration : 504 ms
Writing library : LAME3.98r
Encoding settings : -m s -V 4 -q 2 -lowpass 20.5


Качество:DVDRip /Исходник DVD9/
Формат: AVI
Видео кодек:XviD
Аудио кодек:MP3
Видео:704x528 (1.33:1), 25 fps, XviD build 50 ~1673 kbps avg, 0.18 bit/pixel
Аудио:48 kHz, MPEG Layer 3, 2 ch, ~320.00 kbps avg



Скриншоты





Автор рипа:






Оригинальные аудиорожки в АС3, русская и английская



MediaInfo
Русская

Format : AC-3
Format/Info : Audio Coding 3
File size : 249 MiB
Duration : 1h 17mn
Overall bit rate : 448 Kbps

Audio
Format : AC-3
Format/Info : Audio Coding 3
Mode extension : CM (complete main)
Duration : 1h 17mn
Bit rate mode : Constant
Bit rate : 448 Kbps
Channel(s) : 6 channels
Channel positions : Front: L C R, Side: L R, LFE
Sampling rate : 48.0 KHz
Bit depth : 16 bits
Stream size : 249 MiB (100%)

Английская

Format : AC-3
Format/Info : Audio Coding 3
File size : 249 MiB
Duration : 1h 17mn
Overall bit rate : 448 Kbps

Audio
Format : AC-3
Format/Info : Audio Coding 3
Mode extension : CM (complete main)
Duration : 1h 17mn
Bit rate mode : Constant
Bit rate : 448 Kbps
Channel(s) : 6 channels
Channel positions : Front: L C R, Side: L R, LFE
Sampling rate : 48.0 KHz
Bit depth : 16 bits
Stream size : 249 MiB (100%)
 

Вложения

Привет!

Мы группа людей которые решили помочь другим в решении их проблем, а так же пользователям с поиском самых свежих и качественных инфопродуктов. За 4 с небольшим месяца мы создали этот форум на который заходят ежедневно тысячи человек и посещаемость постоянно растёт. Мы создали панель лицензирования для защиты PHP скриптов от воровства и SEO панель для мониторинга наших сайтов и выбора верной стратегии их развития. Мы надеемся что то что мы создали пригодится Вам и возможно Вы поможете нам развиваться и совершенствоваться вместе с Вами.

Статистика форума

Темы
414.370
Сообщения
475.396
Пользователи
96.561
Новый пользователь
starushka

Приложения форума для iOS и Android


У ркн там нет власти ;)
Приватные разговоры
Помощь Пользователи
    Вы не присоединились ни к одной комнате.