За последнюю неделю опубликовано 52 новых материалов.
Инструкция новичку Путеводитель по форуму Прокси для Telegram Показать подсказки , это бомба!

Скачать Русалка в Париже / Une sirène à Paris (2020) WEB-DLRip-AVC от MediaBit | iTunes бесплатно через торрент

  • Поучаствуй (в качестве покупателя) в любых пяти совместных покупках (кроме завершённых и "Моментальных") и получи группу "Новичок" навсегда -> ссылка на раздел
  • Получай до 480 рублей за каждого приглашенного пользователя!
    представляем Вам очередное расширение партнерской программы, подробности описаны тут -> ссылка
  • 90% материалов доступно к скачиванию после простой регистрации!
    Если же ты хочешь скачивать материалы без требования оставлять отзывы то получи группу "Новичок", 10 способов повышения описаны тут -> ссылка
  • К сожалению количество битых ссылок растет и мы уже не можем их оперативно восстанавливать поэтому просим помощи у каждого нашего пользователя.
    С сегодняшнего дня, за каждую восстановленную ссылку мы заплатим Вам.
    Подробнее тут -> ссылка
  • Перенесем твои заслуги с другого ресурса!
    Мы понимаем как сложно прокачивать аккаунты на форумах, вроде раскачал аккаунт, а тут появляется ресурс в 100 раз круче но тоже с системой прокачки и снова качать аккаунт...
    Предлагаем вам перенести Ваши заслуги на другом подобном ресурсе к нам.
    Подробности описаны тут -> ссылка
  • Вы можете получать по 2.5% с каждой покупки и продажи на маркете! Подробности в теме Партнёрская программа
Если Вы не хотите скачивать, Вы всегда можетепосмотретьонлайн, просто нажмите кнопку ниже :

Открыть плеер

Torrent_Bot

Торрент-Бот
Бот форума
4 Окт 2016
93
160
20





Русалка в Париже / Une sirène à Paris




Информация о фильме:

Название: Русалка в Париже
Оригинальное название: Une sirène à Paris
Год выхода: 2020
Жанр: Фэнтези, мелодрама, комедия
Режиссер: Матиас Мальзьё

В ролях: Николя Дювошель, Мэрилин Лима, Романа Боринже, Чеки Карио, Росси де Пальма, Алексис Михалик, Лу Гала, Николас Уллман

Описание: Он — талантливый артист с невероятной харизмой и прекрасным чувством юмора. Однако его сердце — неприступный бастион даже для самых сногсшибательных девушек Парижа. Всё изменится, когда, гуляя по ночной набережной Сены, он повстречает настоящую русалку. Теперь для музыканта не имеет значения, что любовь к этим красавицам веками губила сердца мужчин…



Страна: Франция
Студия: Entre Chien et Loup, Kinology, Overdrive Productions
Продолжительность: 01:38:13
Перевод: Дублированный - iTunes



Информация о файле:
Кодек: AVC
Формат: MKV
Качество: WEB-DLRip-AVC
Видео: MPEG-4 AVC, 738x310 (2.40:1), 973 kbps, 25.000 fps, 0.170
Аудио RU: AAC-HE, 2 ch, 48 kHz, 96 kbps
Субтитры: Русские (полные, форс.)
Навигация по главам: Есть



Трейлер

Скриншоты
MediaInfo
General
Unique ID : 233723209352180939857687891965694413307 (0xAFD573E802F48E701506702C89B389FB)
Complete name : D:uTorrentRusalka.v.Parizhe.2020.WEB-DLRip-AVC_wolf1245_MediaBit.mkv
Format : Matroska
Format version : Version 4
File size : 752 MiB
Duration : 1 h 38 min
Overall bit rate : 1 071 kb/s
Movie name : Русалка в Париже / Une sirène à Paris (2020) WEB-DLRip-AVC_wolf1245_MediaBit
Encoded date : UTC 2020-08-28 21:11:37
Writing application : mkvmerge v49.0.0 ('Sick Of Losing Soulmates') 64-bit
Writing library : libebml v1.4.0 + libmatroska v1.6.1

Video
ID : 1
Format : AVC
Format/Info : Advanced Video Codec
Format profile : [email protected]
Format settings : CABAC / 12 Ref Frames
Format settings, CABAC : Yes
Format settings, Reference frames : 12 frames
Codec ID : V_MPEG4/ISO/AVC
Duration : 1 h 38 min
Bit rate : 973 kb/s
Width : 738 pixels
Height : 310 pixels
Display aspect ratio : 2.40:1
Frame rate mode : Constant
Frame rate : 25.000 FPS
Color space : YUV
Chroma subsampling : 4:2:0
Bit depth : 8 bits
Scan type : Progressive
Bits/(Pixel*Frame) : 0.170
Stream size : 683 MiB (91%)
Title : wolf1245 & MediaBit
Writing library : x264 core 157 r2958 57baac4
Encoding settings : cabac=1 / ref=12 / deblock=1:-3:-3 / analyse=0x3:0x133 / me=umh / subme=11 / psy=1 / psy_rd=1.00:0.15 / mixed_ref=1 / me_range=48 / chroma_me=1 / trellis=2 / 8x8dct=1 / cqm=0 / deadzone=21,11 / fast_pskip=0 / chroma_qp_offset=-3 / threads=10 / lookahead_threads=2 / sliced_threads=0 / nr=0 / decimate=0 / interlaced=0 / bluray_compat=0 / constrained_intra=0 / bframes=12 / b_pyramid=2 / b_adapt=2 / b_bias=12 / direct=3 / weightb=1 / open_gop=0 / weightp=2 / keyint=250 / keyint_min=25 / scenecut=40 / intra_refresh=0 / rc_lookahead=60 / rc=2pass / mbtree=0 / bitrate=973 / ratetol=1.0 / qcomp=0.60 / qpmin=0 / qpmax=69 / qpstep=4 / cplxblur=20.0 / qblur=0.5 / vbv_maxrate=50000 / vbv_bufsize=62500 / nal_hrd=none / filler=0 / ip_ratio=1.40 / pb_ratio=1.30 / aq=1:1.00
Language : English
Default : Yes
Forced : No
Color range : Limited
Color primaries : BT.709
Transfer characteristics : BT.709
Matrix coefficients : BT.709

Audio
ID : 2
Format : AAC LC SBR
Format/Info : Advanced Audio Codec Low Complexity with Spectral Band Replication
Commercial name : HE-AAC
Format settings : Implicit
Codec ID : A_AAC-2
Duration : 1 h 38 min
Bit rate : 96.0 kb/s
Channel(s) : 2 channels
Channel layout : L R
Sampling rate : 48.0 kHz
Frame rate : 23.438 FPS (2048 SPF)
Compression mode : Lossy
Stream size : 67.4 MiB (9%)
Title : [DUB] | iTunes
Language : Russian
Default : Yes
Forced : No

Text #1
ID : 3
Format : UTF-8
Codec ID : S_TEXT/UTF8
Codec ID/Info : UTF-8 Plain Text
Duration : 1 h 31 min
Bit rate : 53 b/s
Count of elements : 862
Stream size : 35.5 KiB (0%)
Title : Full-length
Language : Russian
Default : No
Forced : No

Text #2
ID : 4
Format : UTF-8
Codec ID : S_TEXT/UTF8
Codec ID/Info : UTF-8 Plain Text
Duration : 1 h 24 min
Bit rate : 5 b/s
Count of elements : 81
Stream size : 3.56 KiB (0%)
Title : Forced
Language : Russian
Default : Yes
Forced : No

Menu
00:00:00.000 : :Глава 1
00:02:41.040 : :Глава 2
00:12:12.240 : :Глава 3
00:20:44.640 : :Глава 4
00:31:46.840 : :Глава 5
00:35:01.480 : :Глава 6
00:41:12.080 : :Глава 7
00:49:32.120 : :Глава 8
00:58:28.920 : :Глава 9
01:12:25.680 : :Глава 10
01:20:05.760 : :Глава 11
01:31:30.880 : :Глава 12

Релиз от: &
 

Вложения

  • 15,7 KB Просмотры: 0
    Личеров 0
    Сидеров 0
    Файлов 1
    Объем 752,2 MB

Привет!

Мы группа людей которые решили помочь другим в решении их проблем, а так же пользователям с поиском самых свежих и качественных инфопродуктов. За 4 с небольшим месяца мы создали этот форум на который заходят ежедневно тысячи человек и посещаемость постоянно растёт. Мы создали панель лицензирования для защиты PHP скриптов от воровства и SEO панель для мониторинга наших сайтов и выбора верной стратегии их развития. Мы надеемся что то что мы создали пригодится Вам и возможно Вы поможете нам развиваться и совершенствоваться вместе с Вами.

Статистика форума

Темы
406.648
Сообщения
465.113
Пользователи
84.625
Новый пользователь
kris_kelt

Приложения форума для iOS и Android


У ркн там нет власти ;)
Приватные разговоры
Помощь Пользователи
    Вы не присоединились ни к одной комнате.