За последнюю неделю опубликовано 64 новых материалов.
Инструкция новичку Путеводитель по форуму Прокси для Telegram Показать подсказки , это бомба!

Скачать Русалка в Париже / Une sirène à Paris (2020) WEB-DLRip 720p | iTunes бесплатно через торрент

  • Поучаствуй (в качестве покупателя) в любых пяти совместных покупках (кроме завершённых и "Моментальных") и получи группу "Новичок" навсегда -> ссылка на раздел
  • Получай до 480 рублей за каждого приглашенного пользователя!
    представляем Вам очередное расширение партнерской программы, подробности описаны тут -> ссылка
  • 90% материалов доступно к скачиванию после простой регистрации!
    Если же ты хочешь скачивать материалы без требования оставлять отзывы то получи группу "Новичок", 10 способов повышения описаны тут -> ссылка
  • К сожалению количество битых ссылок растет и мы уже не можем их оперативно восстанавливать поэтому просим помощи у каждого нашего пользователя.
    С сегодняшнего дня, за каждую восстановленную ссылку мы заплатим Вам.
    Подробнее тут -> ссылка
  • Перенесем твои заслуги с другого ресурса!
    Мы понимаем как сложно прокачивать аккаунты на форумах, вроде раскачал аккаунт, а тут появляется ресурс в 100 раз круче но тоже с системой прокачки и снова качать аккаунт...
    Предлагаем вам перенести Ваши заслуги на другом подобном ресурсе к нам.
    Подробности описаны тут -> ссылка
  • Вы можете получать по 2.5% с каждой покупки и продажи на маркете! Подробности в теме Партнёрская программа
Если Вы не хотите скачивать, Вы всегда можетепосмотретьонлайн, просто нажмите кнопку ниже :

Открыть плеер

Torrent_Bot

Торрент-Бот
Бот форума
4 Окт 2016
92
160
20

Информация о фильме
Название: Русалка в Париже
Оригинальное название: Une sirène à Paris (2020)
Год выхода: 2020
Жанр: Фэнтези, мелодрама, комедия
Режиссер: Матиас Мальзьё
В ролях: Николя Дювошель, Мэрилин Лима, Романа Боринже, Чеки Карио, Росси де Пальма, Алексис Михалик, Лу Гала, Николас Уллман

О фильме:
Он — талантливый артист с невероятной харизмой и прекрасным чувством юмора. Однако его сердце — неприступный бастион даже для самых сногсшибательных девушек Парижа. Всё изменится, когда, гуляя по ночной набережной Сены, он повстречает настоящую русалку. Теперь для музыканта не имеет значения, что любовь к этим красавицам веками губила сердца мужчин…



Страна: Франция
Студия: Entre Chien et Loup, Kinology, Overdrive Productions, Sister and Brother Mitevski, Timpel Pictures, Wonder Films
Продолжительность: 01:38:13
Перевод: Дублированный | iTunes
Субтитры: Русские (Forced, Full)

Файл
Формат: Matroska
Качество: WEB-DLRip 720p
Видео: 1280x536 at 25.000 fps, [email protected], ~2184 kbps
Аудио: AC3, 6 ch, ~384 kbps - | Русский | -
Формат субтитров: softsub (SRT)

***Релиз от:-=DoMiNo=-

M/I
x264 [info]: frame I:1013 Avg QP:15.78 size: 61364
x264 [info]: frame P:36333 Avg QP:17.23 size: 22319
x264 [info]: frame B:109987 Avg QP:20.22 size: 6687
x264 [info]: consecutive B-frames: 1.1% 1.9% 4.5% 73.6% 8.5% 9.0% 0.5% 0.5% 0.1% 0.1%

General
Format : Matroska
Format version : Version 4
File size : 1.76 GiB
Duration : 1 h 38 min
Overall bit rate : 2 570 kb/s
Movie name : Русалка в Париже / Une sirène à Paris (2020) / Русалка в Париже.(2020).WEB-DLRip.720p.[-=DoMiNo=-]
Encoded date : UTC 2020-08-29 18:00:27
Writing application : mkvmerge v49.0.0 ('Sick Of Losing Soulmates') 64-bit
Writing library : libebml v1.4.0 + libmatroska v1.6.1
Cover : Yes
Attachments : Cover.png / Cover 2.jpg

Video
ID : 1
Format : AVC
Format/Info : Advanced Video Codec
Format profile : [email protected]
Format settings : CABAC / 9 Ref Frames
Format settings, CABAC : Yes
Format settings, Reference : 9 frames
Codec ID : V_MPEG4/ISO/AVC
Duration : 1 h 38 min
Bit rate : 2 184 kb/s
Width : 1 280 pixels
Height : 536 pixels
Display aspect ratio : 2.40:1
Frame rate mode : Constant
Frame rate : 25.000 FPS
Color space : YUV
Chroma subsampling : 4:2:0
Bit depth : 8 bits
Scan type : Progressive
Bits/(Pixel*Frame) : 0.127
Stream size : 1.50 GiB (85%)
Title : -=DoMiNo=-
Writing library : x264 core 161 r3018 db0d417
Encoding settings : cabac=1 / ref=9 / deblock=1:-2:-2 / analyse=0x3:0x133 / me=umh / subme=10 / psy=1 / psy_rd=1.00:0.00 / mixed_ref=1 / me_range=32 / chroma_me=1 / trellis=2 / 8x8dct=1 / cqm=0 / deadzone=21,11 / fast_pskip=1 / chroma_qp_offset=-2 / threads=6 / lookahead_threads=1 / sliced_threads=0 / nr=0 / decimate=1 / interlaced=0 / bluray_compat=0 / constrained_intra=0 / bframes=9 / b_pyramid=2 / b_adapt=2 / b_bias=0 / direct=1 / weightb=1 / open_gop=0 / weightp=2 / keyint=250 / keyint_min=25 / scenecut=40 / intra_refresh=0 / rc_lookahead=60 / rc=crf / mbtree=0 / crf=19.0 / qcomp=0.60 / qpmin=0 / qpmax=69 / qpstep=4 / vbv_maxrate=50000 / vbv_bufsize=62500 / crf_max=0.0 / nal_hrd=none / filler=0 / ip_ratio=1.40 / pb_ratio=1.30 / aq=3:0.80
Language : French
Default : Yes
Forced : No
Color range : Limited
Color primaries : BT.709
Transfer characteristics : BT.709
Matrix coefficients : BT.709

Audio
ID : 2
Format : AC-3
Format/Info : Audio Coding 3
Commercial name : Dolby Digital
Codec ID : A_AC3
Duration : 1 h 38 min
Bit rate mode : Constant
Bit rate : 384 kb/s
Channel(s) : 6 channels
Channel layout : L R C LFE Ls Rs
Sampling rate : 48.0 kHz
Frame rate : 31.250 FPS (1536 SPF)
Compression mode : Lossy
Stream size : 270 MiB (15%)
Title : [DUB] DD 5.1 @ 384 kbps (iTunes)
Language : Russian
Service kind : Complete Main
Default : Yes
Forced : No

Text #1
ID : 3
Format : UTF-8
Codec ID : S_TEXT/UTF8
Codec ID/Info : UTF-8 Plain Text
Duration : 1 h 24 min
Bit rate : 5 b/s
Count of elements : 81
Stream size : 3.56 KiB (0%)
Title : Forced
Language : Russian
Default : Yes
Forced : No

Text #2
ID : 4
Format : UTF-8
Codec ID : S_TEXT/UTF8
Codec ID/Info : UTF-8 Plain Text
Duration : 1 h 31 min
Bit rate : 53 b/s
Count of elements : 862
Stream size : 35.5 KiB (0%)
Title : Full-length
Language : Russian
Default : No
Forced : No

Menu
00:00:00.000 : en:Глава 1
00:02:41.040 : en:Глава 2
00:12:12.240 : en:Глава 3
00:20:44.640 : en:Глава 4
00:31:46.840 : en:Глава 5
00:35:01.480 : en:Глава 6
00:41:12.080 : en:Глава 7
00:49:32.120 : en:Глава 8
00:58:28.920 : en:Глава 9
01:12:25.680 : en:Глава 10
01:20:05.760 : en:Глава 11
01:31:30.880 : en:Глава 12
Скриншоты
 

Вложения

  • 71,9 KB Просмотры: 0
    Личеров 0
    Сидеров 0
    Файлов 1
    Объем 1,8 GB

Привет!

Мы группа людей которые решили помочь другим в решении их проблем, а так же пользователям с поиском самых свежих и качественных инфопродуктов. За 4 с небольшим месяца мы создали этот форум на который заходят ежедневно тысячи человек и посещаемость постоянно растёт. Мы создали панель лицензирования для защиты PHP скриптов от воровства и SEO панель для мониторинга наших сайтов и выбора верной стратегии их развития. Мы надеемся что то что мы создали пригодится Вам и возможно Вы поможете нам развиваться и совершенствоваться вместе с Вами.

Статистика форума

Темы
406.657
Сообщения
465.103
Пользователи
84.681
Новый пользователь
natalymak

Приложения форума для iOS и Android


У ркн там нет власти ;)
Приватные разговоры
Помощь Пользователи
    Вы не присоединились ни к одной комнате.