За последнюю неделю опубликовано 62 новых материалов.
Инструкция новичку Путеводитель по форуму Прокси для Telegram Показать подсказки , это бомба!

Скачать Русалка на суше / Mermaid Down (2019) WEB-DLRip-AVC | iTunes бесплатно через торрент

  • Поучаствуй (в качестве покупателя) в любых пяти совместных покупках (кроме завершённых и "Моментальных") и получи группу "Новичок" навсегда -> ссылка на раздел
  • Получай до 480 рублей за каждого приглашенного пользователя!
    представляем Вам очередное расширение партнерской программы, подробности описаны тут -> ссылка
  • 90% материалов доступно к скачиванию после простой регистрации!
    Если же ты хочешь скачивать материалы без требования оставлять отзывы то получи группу "Новичок", 10 способов повышения описаны тут -> ссылка
  • К сожалению количество битых ссылок растет и мы уже не можем их оперативно восстанавливать поэтому просим помощи у каждого нашего пользователя.
    С сегодняшнего дня, за каждую восстановленную ссылку мы заплатим Вам.
    Подробнее тут -> ссылка
  • Перенесем твои заслуги с другого ресурса!
    Мы понимаем как сложно прокачивать аккаунты на форумах, вроде раскачал аккаунт, а тут появляется ресурс в 100 раз круче но тоже с системой прокачки и снова качать аккаунт...
    Предлагаем вам перенести Ваши заслуги на другом подобном ресурсе к нам.
    Подробности описаны тут -> ссылка
  • Вы можете получать по 2.5% с каждой покупки и продажи на маркете! Подробности в теме Партнёрская программа
Если Вы не хотите скачивать, Вы всегда можетепосмотретьонлайн, просто нажмите кнопку ниже :

Открыть плеер

Torrent_Bot

Торрент-Бот
Бот форума
4 Окт 2016
92
160
20



Информация о фильме
Название: Русалка на суше
Оригинальное название: Mermaid Down
Год выхода: 2019
Жанр: Ужасы, фэнтези, триллер, детектив
Режиссер: Джеффри Греллман
В ролях: Меган Тереза Риппи, Александра Бокова, Филлип Андре Ботельо, Эрин Ри, Берт Калвер, Кэролайн Бэмфорд, Джессика Хонор Карлтон, Эшли Корделия, Мишель Галлахер, Мелисса Луго, Мегган Кайзер, Э. Шеперд Стивенсон

О фильме:
«Русалок замечали в этих водах на протяжении многих сотен лет. Они выглядывают посмотреть: любопытство побеждает разум. Может, они и правда существуют?» — такие разговоры ведут рыбаки на шхуне в Тихом океане и отправляются на охоту. И охота оказывается удачной… В их сети попадает русалка, и они решают отрубить ей хвост, перевезти и запереть в психушке. Хорошее место для пленницы, которая пытается убедить других, что она русалка. Но хорошее ли это место будет для остальных? Способны ли эти стены сдержать гнев морского создания? Начинается иная охота. И от нее сложно скрыться, особенно в воде.



Страна: США
Студия: Grellman Film, Heartpine Productions, Mermaid Down
Продолжительность: 01:34:38
Перевод: Профессиональный (многоголосый, закадровый) | iTunes
Субтитры: Русские (Forced), английские (Full, SDH)

Файл
Формат: Matroska
Качество: WEB-DLRip-AVC
Видео: 720x300 at 23.976 fps, [email protected], ~1036 kbps, 0.200 bpp
Аудио: AAC, 2 ch, ~64 kbps - | Русский | -
Формат субтитров: softsub (SRT)

***Релиз от:-=DoMiNo=-

M/I
x264 [info]: frame I:1311 Avg QP:11.41 size: 34736
x264 [info]: frame P:32256 Avg QP:14.74 size: 11256
x264 [info]: frame B:102572 Avg QP:16.60 size: 3162

General
Format : Matroska
Format version : Version 4
File size : 744 MiB
Duration : 1 h 34 min
Overall bit rate : 1 099 kb/s
Movie name : Русалка на суше.(2019).WEB-DLRip-AVC.[-=DoMiNo=-]
Encoded date : UTC 2020-06-19 08:46:28
Writing application : mkvmerge v47.0.0 ('Black Flag') 64-bit
Writing library : libebml v1.3.10 + libmatroska v1.5.2
Cover : Yes
Attachments : cover.jpg / cover 2.jpg

Video
ID : 1
Format : AVC
Format/Info : Advanced Video Codec
Format profile : [email protected]
Format settings : CABAC / 11 Ref Frames
Format settings, CABAC : Yes
Format settings, Reference : 11 frames
Codec ID : V_MPEG4/ISO/AVC
Duration : 1 h 34 min
Bit rate : 1 036 kb/s
Width : 720 pixels
Height : 300 pixels
Display aspect ratio : 2.40:1
Frame rate mode : Constant
Frame rate : 23.976 (24000/1001) FPS
Color space : YUV
Chroma subsampling : 4:2:0
Bit depth : 8 bits
Scan type : Progressive
Bits/(Pixel*Frame) : 0.200
Stream size : 699 MiB (94%)
Title : -=DoMiNo=-
Writing library : x264 core 160 r3009 4c9b076
Encoding settings : cabac=1 / ref=11 / deblock=1:-3:-3 / analyse=0x3:0x133 / me=umh / subme=10 / psy=1 / psy_rd=1.00:0.15 / mixed_ref=1 / me_range=32 / chroma_me=1 / trellis=2 / 8x8dct=1 / cqm=0 / deadzone=21,11 / fast_pskip=0 / chroma_qp_offset=-3 / threads=6 / lookahead_threads=1 / sliced_threads=0 / nr=0 / decimate=0 / interlaced=0 / bluray_compat=0 / constrained_intra=0 / bframes=10 / b_pyramid=2 / b_adapt=2 / b_bias=0 / direct=3 / weightb=1 / open_gop=0 / weightp=2 / keyint=250 / keyint_min=23 / scenecut=40 / intra_refresh=0 / rc_lookahead=60 / rc=2pass / mbtree=0 / bitrate=1036 / ratetol=1.0 / qcomp=0.60 / qpmin=0 / qpmax=69 / qpstep=4 / cplxblur=20.0 / qblur=0.5 / vbv_maxrate=50000 / vbv_bufsize=62500 / nal_hrd=none / filler=0 / ip_ratio=1.40 / pb_ratio=1.30 / aq=3:1.00
Language : English
Default : Yes
Forced : No
Color range : Limited
Color primaries : BT.709
Transfer characteristics : BT.709
Matrix coefficients : BT.709

Audio
ID : 2
Format : AAC LC SBR
Format/Info : Advanced Audio Codec Low Complexity with Spectral Band Replication
Commercial name : HE-AAC
Format settings : Implicit
Codec ID : A_AAC-2
Duration : 1 h 34 min
Bit rate : 64.0 kb/s
Channel(s) : 2 channels
Channel layout : L R
Sampling rate : 48.0 kHz
Frame rate : 23.438 FPS (2048 SPF)
Compression mode : Lossy
Stream size : 43.3 MiB (6%)
Title : MVO
Language : Russian
Default : Yes
Forced : No

Text #1
ID : 3
Format : UTF-8
Codec ID : S_TEXT/UTF8
Codec ID/Info : UTF-8 Plain Text
Duration : 5 min 45 s
Bit rate : 27 b/s
Count of elements : 14
Stream size : 1.18 KiB (0%)
Title : forced
Language : Russian
Default : No
Forced : Yes

Text #2
ID : 4
Format : UTF-8
Codec ID : S_TEXT/UTF8
Codec ID/Info : UTF-8 Plain Text
Duration : 1 h 31 min
Bit rate : 32 b/s
Count of elements : 716
Stream size : 21.7 KiB (0%)
Title : Full-length
Language : English
Default : No
Forced : No

Text #3
ID : 5
Format : UTF-8
Codec ID : S_TEXT/UTF8
Codec ID/Info : UTF-8 Plain Text
Duration : 1 h 32 min
Bit rate : 36 b/s
Count of elements : 937
Stream size : 24.9 KiB (0%)
Title : SDH
Language : English
Default : No
Forced : No

Menu
00:00:00.000 : en:Глава 1
00:07:54.140 : en:Глава 2
00:16:10.177 : en:Глава 3
00:24:08.780 : en:Глава 4
00:32:30.740 : en:Глава 5
00:40:33.681 : en:Глава 6
00:49:00.646 : en:Глава 7
00:57:12.512 : en:Глава 8
01:05:32.345 : en:Глава 9
01:14:03.356 : en:Глава 10
01:22:33.282 : en:Глава 11
01:29:37.080 : en:Глава 12
Скриншоты
 

Вложения

  • 30,2 KB Просмотры: 0
    Личеров 0
    Сидеров 0
    Файлов 1
    Объем 743,8 MB

Привет!

Мы группа людей которые решили помочь другим в решении их проблем, а так же пользователям с поиском самых свежих и качественных инфопродуктов. За 4 с небольшим месяца мы создали этот форум на который заходят ежедневно тысячи человек и посещаемость постоянно растёт. Мы создали панель лицензирования для защиты PHP скриптов от воровства и SEO панель для мониторинга наших сайтов и выбора верной стратегии их развития. Мы надеемся что то что мы создали пригодится Вам и возможно Вы поможете нам развиваться и совершенствоваться вместе с Вами.

Статистика форума

Темы
406.656
Сообщения
465.104
Пользователи
84.661
Новый пользователь
tomik

Приложения форума для iOS и Android


У ркн там нет власти ;)
Приватные разговоры
Помощь Пользователи
    Вы не присоединились ни к одной комнате.