За последнюю неделю опубликовано 34 новых материалов.
Инструкция новичку Путеводитель по форуму Прокси для Telegram Показать подсказки , это бомба!

Скачать Русалка на суше / Mermaid Down (2019) WEB-DL 1080p | iTunes бесплатно через торрент

  • Поучаствуй (в качестве покупателя) в любых пяти совместных покупках (кроме завершённых и "Моментальных") и получи группу "Новичок" навсегда -> ссылка на раздел
  • Получай до 480 рублей за каждого приглашенного пользователя!
    представляем Вам очередное расширение партнерской программы, подробности описаны тут -> ссылка
  • 90% материалов доступно к скачиванию после простой регистрации!
    Если же ты хочешь скачивать материалы без требования оставлять отзывы то получи группу "Новичок", 10 способов повышения описаны тут -> ссылка
  • К сожалению количество битых ссылок растет и мы уже не можем их оперативно восстанавливать поэтому просим помощи у каждого нашего пользователя.
    С сегодняшнего дня, за каждую восстановленную ссылку мы заплатим Вам.
    Подробнее тут -> ссылка
  • Перенесем твои заслуги с другого ресурса!
    Мы понимаем как сложно прокачивать аккаунты на форумах, вроде раскачал аккаунт, а тут появляется ресурс в 100 раз круче но тоже с системой прокачки и снова качать аккаунт...
    Предлагаем вам перенести Ваши заслуги на другом подобном ресурсе к нам.
    Подробности описаны тут -> ссылка
  • Вы можете получать по 2.5% с каждой покупки и продажи на маркете! Подробности в теме Партнёрская программа
Если Вы не хотите скачивать, Вы всегда можетепосмотретьонлайн, просто нажмите кнопку ниже :

Открыть плеер

Torrent_Bot

Торрент-Бот
Бот форума
4 Окт 2016
93
160
20



Информация о фильме
Название: Русалка на суше
Оригинальное название: Mermaid Down
Год выпуска: 2019
Жанр: Ужасы, фэнтези, триллер, детектив
Режиссер: Джеффри Греллман
В ролях: Меган Тереза Риппи, Александра Бокова, Филлип Андре Ботельо, Эрин Ри, Берт Калвер, Кэролайн Бэмфорд, Джессика Хонор Карлтон, Эшли Корделия, Мишель Галлахер, Мелисса Луго, Мегган Кайзер, Э. Шеперд Стивенсон

О фильме: «Русалок замечали в этих водах на протяжении многих сотен лет. Они выглядывают посмотреть: любопытство побеждает разум. Может, они и правда существуют?» — такие разговоры ведут рыбаки на шхуне в Тихом океане и отправляются на охоту. И охота оказывается удачной… В их сети попадает русалка, и они решают отрубить ей хвост, перевезти и запереть в психушке. Хорошее место для пленницы, которая пытается убедить других, что она русалка. Но хорошее ли это место будет для остальных? Способны ли эти стены сдержать гнев морского создания? Начинается иная охота. И от нее сложно скрыться, особенно в воде.



Страна: США
Студия: Grellman Film, Heartpine Productions, Mermaid Down
Продолжительность: 01:34:38
Перевод: Профессиональный (многоголосый, закадровый) | iTunes

Файл
Качество: WEB-DL 1080p
Формат: Matroska
Видео: MPEG-4 AVC, 1920x800 (2.40:1), 5934 kbps, 23.976 fps
Аудио 1: Russian: АС3, 6 ch, 48 kHz, 384 kbps - MVO, iTunes
Аудио 2: English: E-АС3, 6 ch, 48 kHz, 640 kbps - Original
Субтитры: Русские (Forced), английские (Full, SDH)

Релиз от:

Скриншоты

MediaInfo
General
Unique ID : 320878196951635449900021442727620410289 (0xF166E48E9B74DE7881BE310538047BB1)
Complete name : MERMAID_DOWN_2019_WEB-DL_1080p_AMAZON-BLUEBIRD.mkv
Format : Matroska
Format version : Version 4 / Version 2
File size : 4.60 GiB
Duration : 1 h 34 min
Overall bit rate : 6 962 kb/s
Encoded date : UTC 2020-06-17 18:15:06
Writing application : mkvmerge v43.0.0 ('The Quartermaster') 64-bit
Writing library : libebml v1.3.10 + libmatroska v1.5.2
Cover : Yes
Attachments : cover.png / cover.jpg

Video
ID : 1
Format : AVC
Format/Info : Advanced Video Codec
Format profile : [email protected]
Format settings, CABAC : Yes
Format settings, RefFrames : 4 frames
Codec ID : V_MPEG4/ISO/AVC
Duration : 1 h 34 min
Bit rate mode : Constant
Bit rate : 5 934 kb/s
Nominal bit rate : 10 000 kb/s
Width : 1 920 pixels
Height : 800 pixels
Display aspect ratio : 2.40:1
Frame rate mode : Constant
Frame rate : 23.976 (24000/1001) FPS
Color space : YUV
Chroma subsampling : 4:2:0
Bit depth : 8 bits
Scan type : Progressive
Bits/(Pixel*Frame) : 0.161
Stream size : 3.92 GiB (85%)
Default : Yes
Forced : No
Color range : Limited
Color primaries : BT.709
Transfer characteristics : BT.709
Matrix coefficients : BT.709

Audio #1
ID : 2
Format : AC-3
Format/Info : Audio Coding 3
Format settings, Endianness : Big
Codec ID : A_AC3
Duration : 1 h 34 min
Bit rate mode : Constant
Bit rate : 384 kb/s
Channel(s) : 6 channels
Channel positions : Front: L C R, Side: L R, LFE
Sampling rate : 48.0 kHz
Frame rate : 31.250 FPS (1536 SPF)
Bit depth : 16 bits
Compression mode : Lossy
Stream size : 260 MiB (6%)
Language : Russian
Service kind : Complete Main
Default : Yes
Forced : No

Audio #2
ID : 3
Format : E-AC-3
Format/Info : Enhanced Audio Coding 3
Format settings, Endianness : Big
Codec ID : A_EAC3
Duration : 1 h 34 min
Bit rate mode : Constant
Bit rate : 640 kb/s
Channel(s) : 6 channels
Channel positions : Front: L C R, Side: L R, LFE
Sampling rate : 48.0 kHz
Frame rate : 187.500 FPS (256 SPF)
Compression mode : Lossy
Stream size : 433 MiB (9%)
Title : [ORIGINAL] DD+ 5.1 @ 640 kbps (Amazon)
Language : English
Service kind : Complete Main
Default : No
Forced : No

Text #1
ID : 4
Format : UTF-8
Codec ID : S_TEXT/UTF8
Codec ID/Info : UTF-8 Plain Text
Duration : 5 min 45 s
Bit rate : 27 b/s
Count of elements : 14
Stream size : 1.18 KiB (0%)
Title : Full-length
Language : Russian
Default : No
Forced : No

Text #2
ID : 5
Format : UTF-8
Codec ID : S_TEXT/UTF8
Codec ID/Info : UTF-8 Plain Text
Duration : 1 h 31 min
Bit rate : 32 b/s
Count of elements : 716
Stream size : 21.7 KiB (0%)
Title : Full-length
Language : English
Default : No
Forced : No

Text #3
ID : 6
Format : UTF-8
Codec ID : S_TEXT/UTF8
Codec ID/Info : UTF-8 Plain Text
Duration : 1 h 32 min
Bit rate : 36 b/s
Count of elements : 937
Stream size : 24.9 KiB (0%)
Title : SDH
Language : English
Default : No
Forced : No

Menu
00:00:00.000 : en:Глава 1
00:07:54.140 : en:Глава 2
00:16:10.177 : en:Глава 3
00:24:08.780 : en:Глава 4
00:32:30.740 : en:Глава 5
00:40:33.681 : en:Глава 6
00:49:00.646 : en:Глава 7
00:57:12.512 : en:Глава 8
01:05:32.345 : en:Глава 9
01:14:03.356 : en:Глава 10
01:22:33.282 : en:Глава 11
01:29:37.080 : en:Глава 12
 

Вложения

  • 23,9 KB Просмотры: 0
    Личеров 0
    Сидеров 0
    Файлов 1
    Объем 4,6 GB

Привет!

Мы группа людей которые решили помочь другим в решении их проблем, а так же пользователям с поиском самых свежих и качественных инфопродуктов. За 4 с небольшим месяца мы создали этот форум на который заходят ежедневно тысячи человек и посещаемость постоянно растёт. Мы создали панель лицензирования для защиты PHP скриптов от воровства и SEO панель для мониторинга наших сайтов и выбора верной стратегии их развития. Мы надеемся что то что мы создали пригодится Вам и возможно Вы поможете нам развиваться и совершенствоваться вместе с Вами.

Статистика форума

Темы
406.601
Сообщения
464.985
Пользователи
84.248
Новый пользователь
kkkkkkkrrrimmmh

Приложения форума для iOS и Android


У ркн там нет власти ;)
Приватные разговоры
Помощь Пользователи
    Вы не присоединились ни к одной комнате.