За последнюю неделю опубликовано 200 новых материалов.
Инструкция новичку Путеводитель по форуму Прокси для Telegram Показать подсказки , это бомба!

Скачать Рубеж (2017) BDRip-AVC от OlLanDGroup | iTunes бесплатно через торрент

  • Поучаствуй (в качестве покупателя) в любых пяти совместных покупках (кроме завершённых и "Моментальных") и получи группу "Новичок" навсегда -> ссылка на раздел
  • Получай до 480 рублей за каждого приглашенного пользователя!
    представляем Вам очередное расширение партнерской программы, подробности описаны тут -> ссылка
  • 90% материалов доступно к скачиванию после простой регистрации!
    Если же ты хочешь скачивать материалы без требования оставлять отзывы то получи группу "Новичок", 10 способов повышения описаны тут -> ссылка
  • К сожалению количество битых ссылок растет и мы уже не можем их оперативно восстанавливать поэтому просим помощи у каждого нашего пользователя.
    С сегодняшнего дня, за каждую восстановленную ссылку мы заплатим Вам.
    Подробнее тут -> ссылка
  • Перенесем твои заслуги с другого ресурса!
    Мы понимаем как сложно прокачивать аккаунты на форумах, вроде раскачал аккаунт, а тут появляется ресурс в 100 раз круче но тоже с системой прокачки и снова качать аккаунт...
    Предлагаем вам перенести Ваши заслуги на другом подобном ресурсе к нам.
    Подробности описаны тут -> ссылка
  • Вы можете получать по 2.5% с каждой покупки и продажи на маркете! Подробности в теме Партнёрская программа
Если Вы не хотите скачивать, Вы всегда можетепосмотретьонлайн, просто нажмите кнопку ниже :

Открыть плеер

Torrent_Bot

Торрент-Бот
Бот форума
4 Окт 2016
124
94
20


Рубеж
«Пройти сквозь время, чтобы спасти любовь»



Год выпуска: 2017
Страна: Россия
Производство: Централ Партнершип, Кит фильм
Жанр: Фантастика, приключения, военный, история, драма


Режиссёр: Дмитрий Тюрин
В ролях: Павел Прилучный, Станислав Дужников, Кристина Бродская, Александр Коршунов, Виктор Добронравов, Игорь Скляр, Дмитрий Куличков, Александр Соколовский, Семён Трескунов, Кирилл Кяро


Перевод: Оригинал | [iTunes]
Субтитры: Нет
Реклама: Отсутствует

Описание: У Михаила есть всё. Всё, кроме любви, и его это устраивает. Но вот он встречает ЕЁ, и всё, чего он добился в этой жизни, рушится в один миг. Не все умеют любить. Не каждому дано любить… Чтобы обрести право на любовь, Михаил получает возможность перемещаться во времени. Туда, где нет кредиток и гаджетов, где гибнут миллионы людей, и превращаются в руины города. Теперь, чтобы не сойти с ума и остаться в настоящем, ему придется принять правила опасного экзистенциального квеста.




Качество: BDRip-AVC | BluRay Disc | Rubezh.2018.FRENCH.1080i.BLURAY.REMUX.AVC.DTS.HD.MA.5.1-Santec29
Продолжительность: 01:36:20

Формат: MKV
Видео кодек: MPEG-4 AVC
Аудио кодек: AC3
Видео: 1152x482 (2.40:1), 25,000 fps, x264 ~2 851 kbps avg, 0.205 bit/pixel
Аудио #1: 48 kHz, AC3 Dolby Digital, 3/2 (L,C,R,l,r) + LFE ch, ~384.00 kbps avg | RUS (iTunes)


Дата премьеры (мир): 2 марта 2018
Дата премьеры (РФ): 22 февраля 2018, «Централ Партнершип»
Цифровой релиз: 5 апреля 2018, «Централ Партнершип»


Релиз от:

MediaInfo
Общее
Уникальный идентификатор : 108505642776580526455717919074506098318 (0x51A16D39512FE1E9F3DBAF64A8E5C68E)
Полное имя : F:OlLanDGroupRubezh.2017.BDRip(AVC).OllanDGroup.mkv
Формат : Matroska
Версия формата : Version 4 / Version 2
Размер файла : 2,18 Гбайт
Продолжительность : 1 ч. 36 м.
Общий поток : 3233 Кбит/сек
Название фильма : Rubezh.2017 #TorpedoUK#
Дата кодирования : UTC 2019-08-18 10:40:39
Программа кодирования : mkvmerge v29.0.0 ('Like It Or Not') 64-bit
Библиотека кодирования : libebml v1.3.6 + libmatroska v1.4.9

Видео
Идентификатор : 1
Формат : AVC
Формат/Информация : Advanced Video Codec
Профиль формата : High@L4.1
Параметр CABAC формата : Да
Параметр ReFrames формата : 10 кадров
Идентификатор кодека : V_MPEG4/ISO/AVC
Продолжительность : 1 ч. 36 м.
Битрейт : 2851 Кбит/сек
Ширина : 1152 пикселя
Высота : 482 пикселя
Соотношение сторон : 2,40:1
Режим частоты кадров : Постоянный
Частота кадров : 25,000 кадров/сек
Цветовое пространство : YUV
Субдискретизация насыщенности : 4:2:0
Битовая глубина : 8 бит
Тип развёртки : Прогрессивная
Бит/(Пиксели*Кадры) : 0.205
Размер потока : 1,92 Гбайт (88%)
Библиотека кодирования : x264 core 146 r2538 121396c
Настройки программы : cabac=1 / ref=10 / deblock=1:-3:-3 / analyse=0x3:0x113 / me=umh / subme=11 / psy=1 / psy_rd=0.99:0.04 / mixed_ref=1 / me_range=48 / chroma_me=1 / trellis=2 / 8x8dct=1 / cqm=0 / deadzone=21,11 / fast_pskip=1 / chroma_qp_offset=-3 / threads=6 / lookahead_threads=1 / sliced_threads=0 / nr=0 / decimate=1 / interlaced=0 / bluray_compat=0 / constrained_intra=0 / bframes=11 / b_pyramid=2 / b_adapt=2 / b_bias=0 / direct=3 / weightb=1 / open_gop=0 / weightp=2 / keyint=250 / keyint_min=25 / scenecut=40 / intra_refresh=0 / rc_lookahead=40 / rc=2pass / mbtree=0 / bitrate=2851 / ratetol=1.0 / qcomp=0.60 / qpmin=0 / qpmax=69 / qpstep=4 / cplxblur=20.0 / qblur=0.5 / vbv_maxrate=50000 / vbv_bufsize=62500 / nal_hrd=none / filler=0 / ip_ratio=1.40 / pb_ratio=1.30 / aq=1:1.00
Default : Да
Forced : Нет

Аудио
Идентификатор : 2
Формат : AC-3
Формат/Информация : Audio Coding 3
Расширение режима : CM (complete main)
Параметр Endianness формата : Big
Идентификатор кодека : A_AC3
Продолжительность : 1 ч. 36 м.
Вид битрейта : Постоянный
Битрейт : 384 Кбит/сек
Каналы : 6 каналов
Расположение каналов : Front: L C R, Side: L R, LFE
Частота : 48,0 КГц
Частота кадров : 31,250 кадров/сек (1536 spf)
Битовая глубина : 16 бит
Метод сжатия : С потерями
Размер потока : 265 Мбайт (12%)
Заголовок : [Original]
Язык : Russian
Default : Да
Forced : Нет

Меню
00:00:00.000 : :Глава 01
00:11:35.080 : :Глава 02
00:26:25.400 : :Глава 03
00:30:20.119 : :Глава 04
00:31:59.480 : :Глава 05
00:36:28.400 : :Глава 06
00:39:40.239 : :Глава 07
00:42:03.000 : :Глава 08
00:48:37.079 : :Глава 09
00:51:20.480 : :Глава 10
01:01:31.920 : :Глава 11
01:08:58.039 : :Глава 12
01:10:11.039 : :Глава 13
01:14:33.399 : :Глава 14
01:18:36.479 : :Глава 15
01:31:18.079 : :Глава 16
Скриншоты


 

Вложения

  • 11,8 KB Просмотры: 1
    Личеров 0
    Сидеров 0
    Файлов 1
    Объем 2,2 GB
Ваш e-mail не будет опубликован. Он потребуется для подтверждения Вашего поста.
Оформление текста Нажмите «Ввод», чтобы отправить ответ.

Привет!

Мы группа людей которые решили помочь другим в решении их проблем, а так же пользователям с поиском самых свежих и качественных инфопродуктов. За 4 с небольшим месяца мы создали этот форум на который заходят ежедневно тысячи человек и посещаемость постоянно растёт. Мы создали панель лицензирования для защиты PHP скриптов от воровства и SEO панель для мониторинга наших сайтов и выбора верной стратегии их развития. Мы надеемся что то что мы создали пригодится Вам и возможно Вы поможете нам развиваться и совершенствоваться вместе с Вами.

Статистика форума

Темы
378.715
Сообщения
417.945
Пользователи
49.488
Новый пользователь
Thetanik

Приложения форума для iOS и Android


У ркн там нет власти ;)
Приватные разговоры
Помощь Пользователи
    Вы не присоединились ни к одной комнате.