За последнюю неделю опубликовано 200 новых материалов.
Инструкция новичку Путеводитель по форуму Прокси для Telegram Показать подсказки , это бомба!

Скачать Рубеж (2017) BDRip 720p от ExKinoRay | iTunes бесплатно через торрент

  • Поучаствуй (в качестве покупателя) в любых пяти совместных покупках (кроме завершённых и "Моментальных") и получи группу "Новичок" навсегда -> ссылка на раздел
  • Получай до 480 рублей за каждого приглашенного пользователя!
    представляем Вам очередное расширение партнерской программы, подробности описаны тут -> ссылка
  • 90% материалов доступно к скачиванию после простой регистрации!
    Если же ты хочешь скачивать материалы без требования оставлять отзывы то получи группу "Новичок", 10 способов повышения описаны тут -> ссылка
  • К сожалению количество битых ссылок растет и мы уже не можем их оперативно восстанавливать поэтому просим помощи у каждого нашего пользователя.
    С сегодняшнего дня, за каждую восстановленную ссылку мы заплатим Вам.
    Подробнее тут -> ссылка
  • Перенесем твои заслуги с другого ресурса!
    Мы понимаем как сложно прокачивать аккаунты на форумах, вроде раскачал аккаунт, а тут появляется ресурс в 100 раз круче но тоже с системой прокачки и снова качать аккаунт...
    Предлагаем вам перенести Ваши заслуги на другом подобном ресурсе к нам.
    Подробности описаны тут -> ссылка
  • Вы можете получать по 2.5% с каждой покупки и продажи на маркете! Подробности в теме Партнёрская программа
Если Вы не хотите скачивать, Вы всегда можетепосмотретьонлайн, просто нажмите кнопку ниже :

Открыть плеер

Torrent_Bot

Торрент-Бот
Бот форума
4 Окт 2016
124
94
20



Название: Рубеж
Год выхода: 2017
Жанр: Фантастика, приключения, военный, история, драма
Режиссер: Дмитрий Тюрин
В ролях: Павел Прилучный, Станислав Дужников, Кристина Бродская, Александр Коршунов, Виктор Добронравов, Игорь Скляр, Дмитрий Куличков, Александр Соколовский, Семен Трескунов, Кирилл Кяро

О фильме: У Михаила есть всё. Всё, кроме любви, и его это устраивает. Но вот он встречает ЕЁ, и всё, чего он добился в этой жизни, рушится в один миг. Не все умеют любить. Не каждому дано любить... Чтобы обрести право на любовь, Михаил получает возможность перемещаться во времени. Туда, где нет кредиток и гаджетов, где гибнут миллионы людей, и превращаются в руины города. Теперь, чтобы не сойти с ума и остаться в настоящем, ему придется принять правила опасного экзистенциального квеста.



Страна: Россия
Студия: Централ Партнершип, Кит фильм
Продолжительность: 01:36:18
Язык: Русский | iTunes

Файл
Формат: MKV
Качество: BDRip 720p
Видео: MPEG-4 AVC, 1280x536 (2.40:1), 25.000 fps, 4050 Kbps, 0.236 bit/pixel
Аудио: 48 kHz, AC3, 5.1 ch, ~384 kbps avg
Субтитры: Французские форс. (хардсаб)

ОтчетМедиаИнфо
x264 [info]: frame I:1170 Avg QP:16.10 size: 90630
x264 [info]: frame P:36915 Avg QP:17.78 size: 36070
x264 [info]: frame B:106384 Avg QP:19.20 size: 13973
x264 [info]: consecutive B-frames: 4.0% 7.0% 12.2% 21.7% 15.1% 32.9% 4.3% 0.9% 0.8% 0.5% 0.7%
__________________________________________________________________
General
Unique ID : 226945163470050204725257540687322416586 (0xAABC0C7172BF20CAABD54AC696C405CA)
Complete name : F:Рубеж.2018.BDRip.720p.ExKinoRay.mkv
Format : Matroska
Format version : Version 2
File size : 2.98 GiB
Duration : 1 h 36 min
Overall bit rate : 4 434 kb/s
Movie name : Рубеж 2017 from ExKinoRay
Encoded date : UTC 2019-08-22 16:53:02
Writing application : mkvmerge v5.6.0 ('Kenya Kane') built on May 27 2012 16:44:04
Writing library : libebml v1.2.3 + libmatroska v1.3.0

Video
ID : 1
Format : AVC
Format/Info : Advanced Video Codec
Format profile : High@L4.1
Format settings, CABAC : Yes
Format settings, ReFrames : 12 frames
Codec ID : V_MPEG4/ISO/AVC
Duration : 1 h 36 min
Bit rate : 4 050 kb/s
Width : 1 280 pixels
Height : 536 pixels
Display aspect ratio : 2.40:1
Frame rate mode : Constant
Frame rate : 25.000 FPS
Color space : YUV
Chroma subsampling : 4:2:0
Bit depth : 8 bits
Scan type : Progressive
Bits/(Pixel*Frame) : 0.236
Stream size : 2.67 GiB (89%)
Title : Enigma
Writing library : x264 core 152 r2851 ba24899
Encoding settings : cabac=1 / ref=12 / deblock=1:-3:-3 / analyse=0x3:0x113 / me=umh / subme=10 / psy=1 / psy_rd=1.00:0.00 / mixed_ref=1 / me_range=32 / chroma_me=1 / trellis=2 / 8x8dct=1 / cqm=0 / deadzone=21,11 / fast_pskip=0 / chroma_qp_offset=-2 / threads=12 / lookahead_threads=3 / sliced_threads=0 / nr=0 / decimate=0 / interlaced=0 / bluray_compat=0 / constrained_intra=0 / bframes=10 / b_pyramid=2 / b_adapt=2 / b_bias=0 / direct=3 / weightb=1 / open_gop=0 / weightp=2 / keyint=240 / keyint_min=24 / scenecut=40 / intra_refresh=0 / rc=2pass / mbtree=0 / bitrate=4050 / ratetol=1.0 / qcomp=0.60 / qpmin=0 / qpmax=51 / qpstep=4 / cplxblur=20.0 / qblur=0.5 / ip_ratio=1.14 / pb_ratio=1.30 / aq=3:1.00
Language : English
Default : Yes
Forced : No
Color range : Limited
Color primaries : BT.709
Transfer characteristics : BT.709
Matrix coefficients : BT.709

Audio
ID : 2
Format : AC-3
Format/Info : Audio Coding 3
Mode extension : CM (complete main)
Format settings, Endianness : Big
Codec ID : A_AC3
Duration : 1 h 36 min
Bit rate mode : Constant
Bit rate : 384 kb/s
Channel(s) : 6 channels
Channel positions : Front: L C R, Side: L R, LFE
Sampling rate : 48.0 kHz
Frame rate : 31.250 FPS (1536 spf)
Compression mode : Lossy
Stream size : 265 MiB (9%)
Title : iTunes
Language : Russian
Default : Yes
Forced : No

Menu
00:00:00.000 : ru:Chapter 1
00:11:35.080 : ru:Chapter 2
00:26:25.400 : ru:Chapter 3
00:30:20.120 : ru:Chapter 4
00:31:59.480 : ru:Chapter 5
00:36:28.400 : ru:Chapter 6
00:39:40.240 : ru:Chapter 7
00:42:03.000 : ru:Chapter 8
00:48:37.080 : ru:Chapter 9
00:51:20.480 : ru:Chapter 10
01:01:31.920 : ru:Chapter 11
01:08:58.040 : ru:Chapter 12
01:10:11.040 : ru:Chapter 13
01:14:33.400 : ru:Chapter 14
01:18:36.480 : ru:Chapter 15
01:31:18.080 : ru:Chapter 16





Релиз от:

Автор релиза:
 

Вложения

  • 15,9 KB Просмотры: 1
    Личеров 0
    Сидеров 0
    Файлов 1
    Объем 3 GB
Ваш e-mail не будет опубликован. Он потребуется для подтверждения Вашего поста.
Оформление текста Нажмите «Ввод», чтобы отправить ответ.

Привет!

Мы группа людей которые решили помочь другим в решении их проблем, а так же пользователям с поиском самых свежих и качественных инфопродуктов. За 4 с небольшим месяца мы создали этот форум на который заходят ежедневно тысячи человек и посещаемость постоянно растёт. Мы создали панель лицензирования для защиты PHP скриптов от воровства и SEO панель для мониторинга наших сайтов и выбора верной стратегии их развития. Мы надеемся что то что мы создали пригодится Вам и возможно Вы поможете нам развиваться и совершенствоваться вместе с Вами.

Статистика форума

Темы
378.715
Сообщения
417.945
Пользователи
49.484
Новый пользователь
malenaspecial

Приложения форума для iOS и Android


У ркн там нет власти ;)
Приватные разговоры
Помощь Пользователи
    Вы не присоединились ни к одной комнате.