За последнюю неделю опубликовано 157 новых материалов.
Инструкция новичку Путеводитель по форуму Прокси для Telegram Показать подсказки , это бомба!

Скачать Рождественская катастрофа Хэнка Зипцера / Hank Zipzer's Christmas Catastrophe (2016) WEBRip 720p | P бесплатно через торрент

  • Поучаствуй (в качестве покупателя) в любых пяти совместных покупках (кроме завершённых и "Моментальных") и получи группу "Новичок" навсегда -> ссылка на раздел
  • Получай до 480 рублей за каждого приглашенного пользователя!
    представляем Вам очередное расширение партнерской программы, подробности описаны тут -> ссылка
  • 90% материалов доступно к скачиванию после простой регистрации!
    Если же ты хочешь скачивать материалы без требования оставлять отзывы то получи группу "Новичок", 10 способов повышения описаны тут -> ссылка
  • К сожалению количество битых ссылок растет и мы уже не можем их оперативно восстанавливать поэтому просим помощи у каждого нашего пользователя.
    С сегодняшнего дня, за каждую восстановленную ссылку мы заплатим Вам.
    Подробнее тут -> ссылка
  • Перенесем твои заслуги с другого ресурса!
    Мы понимаем как сложно прокачивать аккаунты на форумах, вроде раскачал аккаунт, а тут появляется ресурс в 100 раз круче но тоже с системой прокачки и снова качать аккаунт...
    Предлагаем вам перенести Ваши заслуги на другом подобном ресурсе к нам.
    Подробности описаны тут -> ссылка
  • Вы можете получать по 2.5% с каждой покупки и продажи на маркете! Подробности в теме Партнёрская программа
Если Вы не хотите скачивать, Вы всегда можетепосмотретьонлайн, просто нажмите кнопку ниже :

Открыть плеер

Torrent_Bot

Торрент-Бот
Бот форума
4 Окт 2016
124
97
20



Информация о фильме
Название: Рождественская катастрофа Хэнка Зипцера
Оригинальное название: Hank Zipzer's Christmas Catastrophe
Год выхода: 2016
Жанр: комедия, семейный
Режиссер: Мэтт Блум
В ролях: Ник Джеймс, Нил Фицморис, Джульетт Кауэн, Мадлен Холлидэй, Никки Хелен, Винченцо Николи, Кайли Расселл, Джейден Жан Поль-Денис, Алисия Лаи, Генри Уинклер, Алисия Лаи, Генри Уинклер, Фелисити Монтегю, Джевон Принц, Ребекка Рут

О фильме:
В это Рождество семья Хэнка Зипцера готовится к настоящему чуду: появлению ребенка. Для всех это большая радость. Но Хэнк верен себе. Даже Рождество он способен превратить в катастрофу… Сумеет ли Хэнк все исправить до появления младшего брата?

Фильм является полнометражным сиквелом сериала Хэнк Зипзер (Хенк Зипцер) / Hank Zipzer



Производство: Великобритания / Kindle Entertainment
Продолжительность: 01:27:33
Перевод: профессиональный многоголосый закадровый (Первый ТВЧ)

Файл
Качество: WEBRip 720p
Формат: MKV
Видео: MPEG-4 AVC, 1280x720 (16:9), 50.000 fps, 4741 kbps, 0.103 bit/pixel
Аудио #1: русский, AC3 2.0, 48 kHz, 192 kbps
Аудио #2: английский, AC3 2.0, 48 kHz, 192 kbps

MediaInfo
Общее
Уникальный идентификатор : 170890752050679843778987230419391169735 (0x80905C95B4A0EC67A9E16910210D44C7)
Полное имя : Hank.Zipzer's.Christmas.Catastrophe.2016.WEBRip.720p.mkv
Формат : Matroska
Версия формата : Version 4
Размер файла : 3,20 Гбайт
Продолжительность : 1 ч. 27 м.
Общий поток : 5229 Кбит/сек
Дата кодирования : UTC 2020-01-10 11:53:47
Программа кодирования : mkvmerge v7.9.0 ('Birds') 64bit
Библиотека кодирования : libebml v1.3.1 + libmatroska v1.4.2

Видео
Идентификатор : 1
Формат : AVC
Формат/Информация : Advanced Video Codec
Профиль формата : High@L3.2
Настройки формата : CABAC / 4 Ref Frames
Параметр CABAC формата : Да
Параметр RefFrames формата : 4 кадра
Идентификатор кодека : V_MPEG4/ISO/AVC
Продолжительность : 1 ч. 27 м.
Битрейт : 4741 Кбит/сек
Ширина : 1280 пикселей
Высота : 720 пикселей
Соотношение сторон : 16:9
Режим частоты кадров : Постоянный
Частота кадров : 50,000 кадров/сек
Стандарт вещания : Component
Цветовое пространство : YUV
Субдискретизация насыщенности : 4:2:0
Битовая глубина : 8 бит
Тип развёртки : Прогрессивная
Бит/(Пиксели*Кадры) : 0.103
Размер потока : 2,90 Гбайт (91%)
Язык : English
Default : Да
Forced : Нет
Цветовой диапазон : Limited
Основные цвета : BT.709
Характеристики трансфера : BT.709
Коэффициенты матрицы : BT.709

Аудио #1
Идентификатор : 2
Формат : AC-3
Формат/Информация : Audio Coding 3
Коммерческое название : Dolby Digital
Идентификатор кодека : A_AC3
Продолжительность : 1 ч. 27 м.
Вид битрейта : Постоянный
Битрейт : 192 Кбит/сек
Каналы : 2 канала
ChannelLayout : L R
Частота : 48,0 КГц
Частота кадров : 31,250 кадров/сек (1536 SPF)
Битовая глубина : 16 бит
Метод сжатия : С потерями
Размер потока : 120 Мбайт (4%)
Язык : Russian
ServiceKind : Complete Main
Default : Да
Forced : Нет

Аудио #2
Идентификатор : 3
Формат : AC-3
Формат/Информация : Audio Coding 3
Коммерческое название : Dolby Digital
Идентификатор кодека : A_AC3
Продолжительность : 1 ч. 27 м.
Вид битрейта : Постоянный
Битрейт : 192 Кбит/сек
Каналы : 2 канала
ChannelLayout : L R
Частота : 48,0 КГц
Частота кадров : 31,250 кадров/сек (1536 SPF)
Битовая глубина : 16 бит
Метод сжатия : С потерями
Размер потока : 120 Мбайт (4%)
Язык : English
ServiceKind : Complete Main
Default : Нет
Forced : Нет
Скриншоты
 

Вложения

  • 17 KB Просмотры: 0
    Личеров 0
    Сидеров 0
    Файлов 1
    Объем 3,2 GB
Ваш e-mail не будет опубликован. Он потребуется для подтверждения Вашего поста.
Оформление текста Нажмите «Ввод», чтобы отправить ответ.

Привет!

Мы группа людей которые решили помочь другим в решении их проблем, а так же пользователям с поиском самых свежих и качественных инфопродуктов. За 4 с небольшим месяца мы создали этот форум на который заходят ежедневно тысячи человек и посещаемость постоянно растёт. Мы создали панель лицензирования для защиты PHP скриптов от воровства и SEO панель для мониторинга наших сайтов и выбора верной стратегии их развития. Мы надеемся что то что мы создали пригодится Вам и возможно Вы поможете нам развиваться и совершенствоваться вместе с Вами.

Статистика форума

Темы
380.693
Сообщения
420.345
Пользователи
50.685
Новый пользователь
voron_78

Приложения форума для iOS и Android


У ркн там нет власти ;)
Приватные разговоры
Помощь Пользователи
    Вы не присоединились ни к одной комнате.