За последнюю неделю опубликовано 51 новых материалов.
Инструкция новичку Путеводитель по форуму Прокси для Telegram Показать подсказки , это бомба!

Скачать Розенштрассе / Rosenstrasse (2003) BDRip 720p от KORSAR | P2 бесплатно через торрент

  • Поучаствуй (в качестве покупателя) в любых пяти совместных покупках (кроме завершённых и "Моментальных") и получи группу "Новичок" навсегда -> ссылка на раздел
  • Получай до 480 рублей за каждого приглашенного пользователя!
    представляем Вам очередное расширение партнерской программы, подробности описаны тут -> ссылка
  • 90% материалов доступно к скачиванию после простой регистрации!
    Если же ты хочешь скачивать материалы без требования оставлять отзывы то получи группу "Новичок", 10 способов повышения описаны тут -> ссылка
  • К сожалению количество битых ссылок растет и мы уже не можем их оперативно восстанавливать поэтому просим помощи у каждого нашего пользователя.
    С сегодняшнего дня, за каждую восстановленную ссылку мы заплатим Вам.
    Подробнее тут -> ссылка
  • Перенесем твои заслуги с другого ресурса!
    Мы понимаем как сложно прокачивать аккаунты на форумах, вроде раскачал аккаунт, а тут появляется ресурс в 100 раз круче но тоже с системой прокачки и снова качать аккаунт...
    Предлагаем вам перенести Ваши заслуги на другом подобном ресурсе к нам.
    Подробности описаны тут -> ссылка
  • Вы можете получать по 2.5% с каждой покупки и продажи на маркете! Подробности в теме Партнёрская программа
Если Вы не хотите скачивать, Вы всегда можетепосмотретьонлайн, просто нажмите кнопку ниже :

Открыть плеер

Torrent_Bot

Торрент-Бот
Бот форума
4 Окт 2016
91
164
20
Розенштрассе
Rosenstrasse


Страна: Германия, Нидерланды
Жанр: драма, военный
Год выпуска: 2003
Продолжительность: 02:15:38
Перевод: Профессиональный (двухголосый, закадровый)


Режиссер: Маргарете фон Тротта / Margarethe von Trotta


В ролях: Катя Риманн, Мария Шрадер, Дорис Шаде, Ютта Лямпе, Svea Lohde, Юрген Фогель, Мартин Файфель, Федя ван Хюэт, Карола Ранье, Plien van Bennekom


Описание: Нью-Йорк, 2001 год. После смерти мужа Руфь лишается душевного покоя. Ее дочь Ханна узнает, что родители матери, будучи евреями, были депортированы во время Второй мировой войны, а Руфь воспитала немка по имени Лена. Ханна едет в Берлин и разыскивает женщину, когда-то приютившую ее мать. Лена, которой уже почти 90 лет, рассказывает Хане удивительную историю женщин с Розенштрассе - улицы в Берлине, где находилась известная тюрьма...








Качество: BDRip 720p
Контейнер: MKV

Видео: MPEG-4 AVC, 1276x544 (2.35:1), 4000 kbps, 23,976 fps, 0,240 bpp
Аудио №1: русский / AC3 / 2.0 / 48 kHz / 192 kbps / DVO
Аудио №2: немецкий / AC3 / 5.1 / 48 kHz / 640 kbps
Навигация по главам: есть


Media Info
Формат : Matroska
Версия формата : Version 2
Размер файла : 4,58 Гбайт
Продолжительность : 2 ч. 15 м.
Общий поток : 4832 Кбит/сек
Название фильма : = Розенштрассе / Rosenstraße (2003) BDRip 720p - KORSAR =
Дата кодирования : UTC 2018-09-01 13:21:06
Программа кодирования : mkvmerge v5.8.0 ('No Sleep / Pillow') built on Sep 2 2012 15:37:04
Библиотека кодирования : libebml v1.2.3 + libmatroska v1.3.0
Attachment : Yes

Видео
Идентификатор : 1
Формат : AVC
Формат/Информация : Advanced Video Codec
Профиль формата : [email protected]
Параметр CABAC формата : Да
Параметр ReFrames формата : 12 кадров
Идентификатор кодека : V_MPEG4/ISO/AVC
Продолжительность : 2 ч. 15 м.
Битрейт : 4000 Кбит/сек
Ширина : 1276 пикселей
Высота : 544 пикселя
Соотношение сторон : 2,35:1
Режим частоты кадров : Постоянный
Частота кадров : 23,976 кадра/сек
Цветовое пространство : YUV
Субдискретизация насыщенности : 4:2:0
Битовая глубина : 8 бит
Тип развёртки : Прогрессивная
Бит/(Пиксели*Кадры) : 0.240
Размер потока : 3,70 Гбайт (81%)
Заголовок : Розенштрассе / Rosenstraße (2003) BDRip 720p - KORSAR
Библиотека кодирования : x264 core 148 r2744kMod b97ae06
Настройки программы : cabac=1 / ref=12 / deblock=1:-3:-3 / analyse=0x3:0x113 / me=umh / subme=11 / psy=1 / fade_compensate=0.00 / psy_rd=1.02:0.05 / mixed_ref=1 / me_range=48 / chroma_me=1 / trellis=2 / 8x8dct=1 / cqm=0 / deadzone=21,11 / fast_pskip=0 / chroma_qp_offset=-3 / threads=12 / lookahead_threads=3 / sliced_threads=0 / nr=0 / decimate=0 / interlaced=0 / bluray_compat=0 / constrained_intra=0 / bframes=12 / b_pyramid=2 / b_adapt=2 / b_bias=0 / direct=3 / weightb=1 / open_gop=0 / weightp=2 / keyint=240 / keyint_min=23 / scenecut=40 / intra_refresh=0 / rc_lookahead=60 / rc=2pass / mbtree=0 / bitrate=4000 / ratetol=1.0 / qcomp=0.66 / qpmin=0 / qpmax=39 / qpstep=4 / cplxblur=20.0 / qblur=0.5 / vbv_maxrate=50000 / vbv_bufsize=62500 / nal_hrd=none / filler=0 / ip_ratio=1.40 / pb_ratio=1.30 / aq=3:0.90
Язык : German
Default : Да
Forced : Нет
Основные цвета : BT.709
Характеристики трансфера : BT.709
Коэффициенты матрицы : BT.709

Аудио #1
Идентификатор : 2
Формат : AC-3
Формат/Информация : Audio Coding 3
Расширение режима : CM (complete main)
Параметр Endianness формата : Big
Идентификатор кодека : A_AC3
Продолжительность : 2 ч. 15 м.
Вид битрейта : Постоянный
Битрейт : 192 Кбит/сек
Каналы : 2 канала
Расположение каналов : Front: L R
Частота : 48,0 КГц
Битовая глубина : 16 бит
Метод сжатия : С потерями
Размер потока : 186 Мбайт (4%)
Заголовок : DVO
Язык : Russian
Default : Да
Forced : Нет

Аудио #2
Идентификатор : 3
Формат : AC-3
Формат/Информация : Audio Coding 3
Расширение режима : CM (complete main)
Параметр Endianness формата : Big
Идентификатор кодека : A_AC3
Продолжительность : 2 ч. 15 м.
Вид битрейта : Постоянный
Битрейт : 640 Кбит/сек
Каналы : 6 каналов
Расположение каналов : Front: L C R, Side: L R, LFE
Частота : 48,0 КГц
Битовая глубина : 16 бит
Метод сжатия : С потерями
Размер потока : 621 Мбайт (13%)
Язык : German
Default : Нет
Forced : Нет

Меню
00:00:00.000 : en:00:00:00.000
00:12:03.723 : en:00:12:03.723
00:21:33.250 : en:00:21:33.250
00:28:11.732 : en:00:28:11.732
00:35:16.239 : en:00:35:16.239
00:41:25.692 : en:00:41:25.692
00:51:11.568 : en:00:51:11.568
00:58:22.374 : en:00:58:22.374
01:11:03.885 : en:01:11:03.885
01:20:22.109 : en:01:20:22.109
01:29:46.214 : en:01:29:46.214
01:41:51.605 : en:01:41:51.605
01:47:43.165 : en:01:47:43.165
01:56:49.336 : en:01:56:49.336
02:04:21.579 : en:02:04:21.579
02:11:55.533 : en:02:11:55.533


Скриншоты

 

Вложения

  • 23,8 KB Просмотры: 1
    Личеров 0
    Сидеров 0
    Файлов 1
    Объем 4,6 GB

Привет!

Мы группа людей которые решили помочь другим в решении их проблем, а так же пользователям с поиском самых свежих и качественных инфопродуктов. За 4 с небольшим месяца мы создали этот форум на который заходят ежедневно тысячи человек и посещаемость постоянно растёт. Мы создали панель лицензирования для защиты PHP скриптов от воровства и SEO панель для мониторинга наших сайтов и выбора верной стратегии их развития. Мы надеемся что то что мы создали пригодится Вам и возможно Вы поможете нам развиваться и совершенствоваться вместе с Вами.

Статистика форума

Темы
410.572
Сообщения
469.128
Пользователи
86.228
Новый пользователь
ItKristina

Приложения форума для iOS и Android


У ркн там нет власти ;)
Приватные разговоры
Помощь Пользователи
    Вы не присоединились ни к одной комнате.