За последнюю неделю опубликовано 52 новых материалов.
Инструкция новичку Путеводитель по форуму Прокси для Telegram Показать подсказки , это бомба!

Скачать Роза Люксембург / Rosa Luxemburg (1985) BDRemux 1080p | Deu Transfer | P бесплатно через торрент

  • Поучаствуй (в качестве покупателя) в любых пяти совместных покупках (кроме завершённых и "Моментальных") и получи группу "Новичок" навсегда -> ссылка на раздел
  • Получай до 480 рублей за каждого приглашенного пользователя!
    представляем Вам очередное расширение партнерской программы, подробности описаны тут -> ссылка
  • 90% материалов доступно к скачиванию после простой регистрации!
    Если же ты хочешь скачивать материалы без требования оставлять отзывы то получи группу "Новичок", 10 способов повышения описаны тут -> ссылка
  • К сожалению количество битых ссылок растет и мы уже не можем их оперативно восстанавливать поэтому просим помощи у каждого нашего пользователя.
    С сегодняшнего дня, за каждую восстановленную ссылку мы заплатим Вам.
    Подробнее тут -> ссылка
  • Перенесем твои заслуги с другого ресурса!
    Мы понимаем как сложно прокачивать аккаунты на форумах, вроде раскачал аккаунт, а тут появляется ресурс в 100 раз круче но тоже с системой прокачки и снова качать аккаунт...
    Предлагаем вам перенести Ваши заслуги на другом подобном ресурсе к нам.
    Подробности описаны тут -> ссылка
  • Вы можете получать по 2.5% с каждой покупки и продажи на маркете! Подробности в теме Партнёрская программа
Если Вы не хотите скачивать, Вы всегда можетепосмотретьонлайн, просто нажмите кнопку ниже :

Открыть плеер

Torrent_Bot

Торрент-Бот
Бот форума
4 Окт 2016
93
160
20



Информация о фильме
Название: Роза Люксембург
Оригинальное название: Rosa Luxemburg
Год выхода: 1985
Жанр: драма, военный, биография, история
Режиссер: Маргарете фон Тротта
В ролях: Барбара Зукова, Даниэль Ольбрыхский, Отто Зандер, Адельхайд Арндт, Юрген Хольц, Дорис Шаде, Ханнес Янике, Карин Бааль, Винфрид Глатцедер, Генрих Барановский, Шарль Ренье, Эва Якоубкова и др.

Описание: Биографический фильм о выдающейся деятельнице социал-демократической партии, женщине драматической судьбы — Розе Люксембург.



Страна: Чехословакия, Германия
Продолжительность: 02:02:01
Перевод: профессиональный (многоголосый закадровый) Студия Инис по заказу Камертон-Медиа
Субтитры: английские, немцкие
Оригинальная аудиодорожка: немецкий

Файл
Качество: BDRemux 1080p
Видео: MPEG-4 AVC / 1920x1080 / 16:9 / 24.0fps / 28975 kbps / [email protected]
Аудио 1: Rus / AC3 / 48.0 KHz / 2.0 / 192 kbps / 16 bit / Студия Инис
Аудио 2: Deu / FLAC / 48.0 KHz / 2.0 / 808 kbps / 24 bit

Скриншоты
MediaInfo
Общее
Уникальный идентификатор : 279390853517883236120003691816365735827 (0xD230B899DD8BE1DE63469025C86E3F93)
Полное имя : Rosa.Luxemburg.1986.BDRemux.1080p.mkv
Формат : Matroska
Версия формата : Version 4 / Version 2
Размер файла : 25,6 Гбайт
Продолжительность : 2 ч. 2 м.
Режим общего битрейта : Переменный
Общий поток : 30,1 Мбит/сек
Название фильма : Rosa.Luxemburg.1986.BDRemux.1080p-porvaliparus
Дата кодирования : UTC 2020-06-28 09:28:27
Программа кодирования : mkvmerge v48.0.0 ('Fortress Around Your Heart') 64-bit
Библиотека кодирования : libebml v1.4.0 + libmatroska v1.6.0

Видео
Идентификатор : 1
Формат : AVC
Формат/Информация : Advanced Video Codec
Профиль формата : [email protected]
Параметр CABAC формата : Да
Параметр ReFrames формата : 4 кадра
Идентификатор кодека : V_MPEG4/ISO/AVC
Продолжительность : 2 ч. 2 м.
Вид битрейта : Переменный
Битрейт : 29,0 Мбит/сек
Максимальный битрейт : 36,0 Мбит/сек
Ширина : 1920 пикселей
Высота : 1080 пикселей
Соотношение сторон : 16:9
Режим частоты кадров : Постоянный
Частота кадров : 24,000 кадра/сек
Стандарт вещания : NTSC
Цветовое пространство : YUV
Субдискретизация насыщенности : 4:2:0
Битовая глубина : 8 бит
Тип развёртки : Прогрессивная
Бит/(Пиксели*Кадры) : 0.582
Размер потока : 24,7 Гбайт (96%)
Заголовок : Rosa.Luxemburg.1986.BDRemux.1080p
Default : Да
Forced : Нет
Цветовой диапазон : Limited
Основные цвета : BT.709
Характеристики трансфера : BT.709
Коэффициенты матрицы : BT.709

Аудио #1
Идентификатор : 2
Формат : AC-3
Формат/Информация : Audio Coding 3
Параметр Endianness формата : Big
Идентификатор кодека : A_AC3
Продолжительность : 2 ч. 2 м.
Вид битрейта : Постоянный
Битрейт : 192 Кбит/сек
Каналы : 2 канала
Расположение каналов : Front: L R
Частота : 48,0 КГц
Частота кадров : 31,250 кадров/сек (1536 spf)
Битовая глубина : 16 бит
Метод сжатия : С потерями
Размер потока : 168 Мбайт (1%)
Заголовок : MVO [Студия Инис]
Язык : Russian
ServiceKind : Complete Main
Default : Да
Forced : Нет

Аудио #2
Идентификатор : 3
Формат : FLAC
Формат/Информация : Free Lossless Audio Codec
Идентификатор кодека : A_FLAC
Продолжительность : 2 ч. 2 м.
Вид битрейта : Переменный
Битрейт : 808 Кбит/сек
Каналы : 2 канала
Расположение каналов : Front: L R
Частота : 48,0 КГц
Частота кадров : 11,719 кадров/сек (4096 spf)
Битовая глубина : 24 бит
Размер потока : 705 Мбайт (3%)
Библиотека кодирования : libFLAC 1.2.1 (UTC 2007-09-17)
Язык : German
Default : Нет
Forced : Нет

Текст #1
Идентификатор : 4
Формат : UTF-8
Идентификатор кодека : S_TEXT/UTF8
Идентификатор кодека/Информация : UTF-8 Plain Text
Продолжительность : 1 ч. 56 м.
Битрейт : 64 бит/сек
ElementCount : 1307
Размер потока : 54,7 Кбайт (0%)
Язык : English
Default : Нет
Forced : Нет

Текст #2
Идентификатор : 5
Формат : PGS
Идентификатор кодека : S_HDMV/PGS
Идентификатор кодека/Информация : Picture based subtitle format used on BDs/HD-DVDs
Продолжительность : 1 ч. 57 м.
Битрейт : 37,8 Кбит/сек
ElementCount : 2616
Размер потока : 31,9 Мбайт (0%)
Язык : English
Default : Нет
Forced : Нет

Текст #3
Идентификатор : 6
Формат : PGS
Идентификатор кодека : S_HDMV/PGS
Идентификатор кодека/Информация : Picture based subtitle format used on BDs/HD-DVDs
Продолжительность : 1 ч. 56 м.
Битрейт : 43,9 Кбит/сек
ElementCount : 2406
Размер потока : 36,6 Мбайт (0%)
Язык : German
Default : Нет
Forced : Нет

Текст #4
Идентификатор : 7
Формат : PGS
Идентификатор кодека : S_HDMV/PGS
Идентификатор кодека/Информация : Picture based subtitle format used on BDs/HD-DVDs
Продолжительность : 1 ч. 49 м.
Битрейт : 4955 бит/сек
ElementCount : 316
Размер потока : 3,87 Мбайт (0%)
Заголовок : Foreign Only
Язык : German
Default : Нет
Forced : Нет

Меню
00:00:00.000 : en:Chapter 01
00:13:28.875 : en:Chapter 02
00:22:58.667 : en:Chapter 03
00:34:44.375 : en:Chapter 04
00:43:21.750 : en:Chapter 05
00:57:47.417 : en:Chapter 06
01:03:27.875 : en:Chapter 07
01:12:29.458 : en:Chapter 08
01:25:11.458 : en:Chapter 09
01:33:06.583 : en:Chapter 10
01:40:52.542 : en:Chapter 11
01:49:28.375 : en:Chapter 12
 

Вложения

  • 65 KB Просмотры: 0
    Личеров 0
    Сидеров 0
    Файлов 1
    Объем 25,6 GB

Привет!

Мы группа людей которые решили помочь другим в решении их проблем, а так же пользователям с поиском самых свежих и качественных инфопродуктов. За 4 с небольшим месяца мы создали этот форум на который заходят ежедневно тысячи человек и посещаемость постоянно растёт. Мы создали панель лицензирования для защиты PHP скриптов от воровства и SEO панель для мониторинга наших сайтов и выбора верной стратегии их развития. Мы надеемся что то что мы создали пригодится Вам и возможно Вы поможете нам развиваться и совершенствоваться вместе с Вами.

Статистика форума

Темы
406.648
Сообщения
465.113
Пользователи
84.623
Новый пользователь
shizlmizl

Приложения форума для iOS и Android


У ркн там нет власти ;)
Приватные разговоры
Помощь Пользователи
    Вы не присоединились ни к одной комнате.