За последнюю неделю опубликовано 51 новых материалов.
Инструкция новичку Путеводитель по форуму Прокси для Telegram Показать подсказки , это бомба!

Скачать Россия 88 (2009) BDRip 1080p от NNNB бесплатно через торрент

  • Поучаствуй (в качестве покупателя) в любых пяти совместных покупках (кроме завершённых и "Моментальных") и получи группу "Новичок" навсегда -> ссылка на раздел
  • Получай до 480 рублей за каждого приглашенного пользователя!
    представляем Вам очередное расширение партнерской программы, подробности описаны тут -> ссылка
  • 90% материалов доступно к скачиванию после простой регистрации!
    Если же ты хочешь скачивать материалы без требования оставлять отзывы то получи группу "Новичок", 10 способов повышения описаны тут -> ссылка
  • К сожалению количество битых ссылок растет и мы уже не можем их оперативно восстанавливать поэтому просим помощи у каждого нашего пользователя.
    С сегодняшнего дня, за каждую восстановленную ссылку мы заплатим Вам.
    Подробнее тут -> ссылка
  • Перенесем твои заслуги с другого ресурса!
    Мы понимаем как сложно прокачивать аккаунты на форумах, вроде раскачал аккаунт, а тут появляется ресурс в 100 раз круче но тоже с системой прокачки и снова качать аккаунт...
    Предлагаем вам перенести Ваши заслуги на другом подобном ресурсе к нам.
    Подробности описаны тут -> ссылка
  • Вы можете получать по 2.5% с каждой покупки и продажи на маркете! Подробности в теме Партнёрская программа
Если Вы не хотите скачивать, Вы всегда можетепосмотретьонлайн, просто нажмите кнопку ниже :

Открыть плеер

Torrent_Bot

Торрент-Бот
Бот форума
4 Окт 2016
91
163
20
Информацияофильме
Русское название: Россия 88
Год выхода: 2009
Жанр: Драма
Режиссер: Павел Бардин
Выпущено: Россия
Продолжительность: 01:39:20
Перевод: Не требуется
В ролях: Петр Федоров, Михаил Поляков, Марина Орел, Николай Мачульский, Михаил Павлик, Вера Строкова, Александр Макаров, Петр Баранчеев, Андрей Мерзликин, Кирилл Каганович


Сюжетфильма
Банда скинхэдов «Россия 88» снимает агитационные ролики для того, чтобы выкладывать их в интернет. Попутно камера фиксирует жизнь банды — к ней привыкают и перестают обращать на нее внимание. Главарь банды Штык обнаруживает, что его сестра встречается с кавказцем. Семейная драма перерастает в трагедию. И камера сопровождает героев до самой развязки. Сюжет схож с историей Ромео и Джульетты. Но только главный герой в фильме — яростный и нетерпимый Тибальт...


Файл
Качество: BDRip 1080p (исходник Blu-ray Disc)
Видео: 1920x1036, 9900 Кбит/сек, 23,976 кадр/сек, AVC, x264, [email protected], 1.85:1, 0.208 Бит/[Пиксели*Кадры], 2pass
Аудио 1: AC-3, 640 Кбит/сек, 6 канала(ов), 48,0 КГц - Оригинал / Русский
Субтитры: Нет
Чаптеры: Есть


Автор Рипа: Сообщество:


Скриншоты
MediaInfo
Format : Matroska
Format version : Version 2
File size : 7.30 GiB
Duration : 1h 39mn
Overall bit rate : 10.5 Mbps
Movie name : Россия 88.(2009).BDRip.1080p.[envy]
Encoded date : UTC 2013-11-16 07:54:56
Writing application : mkvmerge v5.8.0 ('No Sleep / Pillow') built on Sep 2 2012 15:37:04
Writing library : libebml v1.2.3 + libmatroska v1.3.0

Video
ID : 1
Format : AVC
Format/Info : Advanced Video Codec
Format profile : [email protected]
Format settings, CABAC : Yes
Format settings, ReFrames : 4 frames
Codec ID : V_MPEG4/ISO/AVC
Duration : 1h 39mn
Bit rate : 9 900 Kbps
Width : 1 920 pixels
Height : 1 036 pixels
Display aspect ratio : 1.85:1
Frame rate mode : Constant
Frame rate : 23.976 fps
Color space : YUV
Chroma subsampling : 4:2:0
Bit depth : 8 bits
Scan type : Progressive
Bits/(Pixel*Frame) : 0.208
Stream size : 6.71 GiB (92%)
Title : Россия 88.(2009).BDRip.1080p.[envy]
Writing library : x264 core 140 r2377 1ca7bb9
Encoding settings : cabac=1 / ref=4 / deblock=1:0:0 / analyse=0x3:0x133 / me=umh / subme=11 / psy=1 / psy_rd=1.00:0.00 / mixed_ref=1 / me_range=32 / chroma_me=1 / trellis=2 / 8x8dct=1 / cqm=0 / deadzone=21,11 / fast_pskip=0 / chroma_qp_offset=-2 / threads=12 / lookahead_threads=1 / sliced_threads=0 / nr=0 / decimate=1 / interlaced=0 / bluray_compat=0 / constrained_intra=0 / bframes=6 / b_pyramid=2 / b_adapt=2 / b_bias=0 / direct=3 / weightb=1 / open_gop=0 / weightp=2 / keyint=240 / keyint_min=23 / scenecut=40 / intra_refresh=0 / rc=2pass / mbtree=0 / bitrate=9900 / ratetol=2.0 / qcomp=0.60 / qpmin=0 / qpmax=69 / qpstep=4 / cplxblur=20.0 / qblur=0.5 / ip_ratio=1.40 / pb_ratio=1.30 / aq=1:0.70
Language : Russian
Default : Yes
Forced : No

Audio
ID : 2
Format : AC-3
Format/Info : Audio Coding 3
Mode extension : CM (complete main)
Format settings, Endianness : Big
Codec ID : A_AC3
Duration : 1h 39mn
Bit rate mode : Constant
Bit rate : 640 Kbps
Channel count : 6 channels
Channel positions : Front: L C R, Side: L R, LFE
Sampling rate : 48.0 KHz
Bit depth : 16 bits
Compression mode : Lossy
Stream size : 455 MiB (6%)
Title : rus
Language : Russian
Default : Yes
Forced : No

Menu
00:00:00.000 : :Chapter 01
00:09:07.421 : :Chapter 02
00:18:41.495 : :Chapter 03
00:29:15.754 : :Chapter 04
00:38:35.896 : :Chapter 05
00:45:05.619 : :Chapter 06
00:52:30.063 : :Chapter 07
01:00:58.571 : :Chapter 08
01:08:25.392 : :Chapter 09
01:15:17.429 : :Chapter 10
01:27:27.700 : :Chapter 11
01:35:47.616 : :Chapter 12
01:39:19.161 : :Chapter 13

При поддержке:

ВНИМАНИЕ!
Фильм содержит нецензурные выражения!
 

Вложения

  • 37,5 KB Просмотры: 1
    Личеров 0
    Сидеров 0
    Файлов 1
    Объем 7,3 GB

Привет!

Мы группа людей которые решили помочь другим в решении их проблем, а так же пользователям с поиском самых свежих и качественных инфопродуктов. За 4 с небольшим месяца мы создали этот форум на который заходят ежедневно тысячи человек и посещаемость постоянно растёт. Мы создали панель лицензирования для защиты PHP скриптов от воровства и SEO панель для мониторинга наших сайтов и выбора верной стратегии их развития. Мы надеемся что то что мы создали пригодится Вам и возможно Вы поможете нам развиваться и совершенствоваться вместе с Вами.

Статистика форума

Темы
410.570
Сообщения
469.116
Пользователи
86.194
Новый пользователь
S3ne4ka

Приложения форума для iOS и Android


У ркн там нет власти ;)
Приватные разговоры
Помощь Пользователи
    Вы не присоединились ни к одной комнате.