За последнюю неделю опубликовано 57 новых материалов.
Инструкция новичку Путеводитель по форуму Прокси для Telegram Показать подсказки , это бомба!

Скачать Роковое влечение / Fatal Attraction (1987) BDRip 1080p от HDReactor | Remastered | P, P2, A бесплатно через торрент

  • Поучаствуй (в качестве покупателя) в любых пяти совместных покупках (кроме завершённых и "Моментальных") и получи группу "Новичок" навсегда -> ссылка на раздел
  • Получай до 480 рублей за каждого приглашенного пользователя!
    представляем Вам очередное расширение партнерской программы, подробности описаны тут -> ссылка
  • 90% материалов доступно к скачиванию после простой регистрации!
    Если же ты хочешь скачивать материалы без требования оставлять отзывы то получи группу "Новичок", 10 способов повышения описаны тут -> ссылка
  • К сожалению количество битых ссылок растет и мы уже не можем их оперативно восстанавливать поэтому просим помощи у каждого нашего пользователя.
    С сегодняшнего дня, за каждую восстановленную ссылку мы заплатим Вам.
    Подробнее тут -> ссылка
  • Перенесем твои заслуги с другого ресурса!
    Мы понимаем как сложно прокачивать аккаунты на форумах, вроде раскачал аккаунт, а тут появляется ресурс в 100 раз круче но тоже с системой прокачки и снова качать аккаунт...
    Предлагаем вам перенести Ваши заслуги на другом подобном ресурсе к нам.
    Подробности описаны тут -> ссылка
  • Вы можете получать по 2.5% с каждой покупки и продажи на маркете! Подробности в теме Партнёрская программа
Если Вы не хотите скачивать, Вы всегда можетепосмотретьонлайн, просто нажмите кнопку ниже :

Открыть плеер

Torrent_Bot

Торрент-Бот
Бот форума
4 Окт 2016
92
163
20

Информация о фильме
Название: Роковое влечение
Оригинальное название: Fatal Attraction
Год выпуска: 1987
Выпущено: США, Paramount pictures
Жанр: триллер, драма
Режиссёр: Эдриан Лайн
В ролях: Майкл Дуглас, Гленн Клоуз, Энн Арчер, Том Браннан, Мег Манди, Эллен Хэмилтон Лэтцен, Стюарт Пэнкин, Эллен Фоли, Фред Гуинн, Лоис Смит, Майк Нассбаум, Сэм Коппола, Джейн Краковски, Мэри Джой, Марк МакКью, Джеймс Экхаус, Кэрол Шнайдер, Анна Левайн-Томпсон, Джонатан Брэндис, Джо Чэпман

Описание:
Беззаботной и счастливой была жизнь адвоката Дэна Галлагера с молодой женой Бэт и пятилетней дочерью Эллен до того рокового дня, когда Бэт и Эллен отправились за город к родителям, а у Дэна появилось два дня «свободы» от семейных уз. Почувствовав мимолётное влечение к Алекс Форрест, новой сотруднице обслуживаемой им фирмы, он был польщён взаимностью дамы и провёл с ней несколько часов любви сначала в своём доме, а затем уже на квартире любовницы. К исходу второго дня Дэн хотел благополучно вернуться к своему семейному очагу, но оказалось, что теперь он зажат мёртвой хваткой настоящей любовной маньячки. Она начала с того, что перерезала себе вены, и охваченному паникой Дэну пришлось бинтовать ей руки и утешать. Когда Дэну всё же удалось вырваться от Алекс к себе домой, его жизнь превратилась в настоящий кошмар...



Продолжительность: 01:59:24
Перевод: Профессиональный многоголосый, профессиональный двухголосый, авторский
Субтитры: Английские

Файл
Качество: BDRip (1080p)
Видео: MPEG-4 AVC, 17777 Кбит/с, 1920x1080, 23.976 кадр/с
Аудио #1: Русский AC3 5.1, 48 KHz, 448 kbps Профессиональный (многоголосый закадровый) - LDV
Аудио #2: Русский AC3 5.1, 48 KHz, 448 kbps Профессиональный (многоголосый закадровый) - неизвестный
Аудио #3: Русский AC3 2.0, 48 KHz, 192 kbps Профессиональный (двухголосый закадровый) - Премьер Видео фильм
Аудио #4: Русский AC3 5.1, 48 KHz, 448 kbps Авторский (одноголосый закадровый) - Ю.Живов
Аудио #5: Русский AC3 2.0, 48 KHz, 192 kbps Авторский (одноголосый закадровый) - Л.Володарский
Аудио #6: Украинский AC3 5.1, 48 KHz, 384 kbps Профессиональный (многоголосый закадровый) - Телеканал "Интер"
Аудио #7: Английский AC3 5.1, 48 kHz, 448 kbps

МедиаИнфо
Полное имя : J:1Fatal.Attraction.1987.REMASTERED.BDRip.1080p.HDReactor.mkv
Формат : Matroska
Версия формата : Version 2
Размер файла : 17,0 Гбайт
Продолжительность : 1 ч. 59 м.
Общий поток : 20,3 Мбит/сек
Название фильма : ~V ad~
Дата кодирования : UTC 2020-08-05 09:10:19
Программа кодирования : mkvmerge v6.9.1 ('Blue Panther') 32bit built on Apr 18 2014 18:15:44
Библиотека кодирования : libebml v1.3.0 + libmatroska v1.4.1
Обложка : Yes
Attachments : cover.jpg

Видео
Идентификатор : 1
Формат : AVC
Формат/Информация : Advanced Video Codec
Профиль формата : [email protected]
Настройки формата : CABAC / 4 Ref Frames
Параметр CABAC формата : Да
Параметр RefFrames формата : 4 кадра
Идентификатор кодека : V_MPEG4/ISO/AVC
Продолжительность : 1 ч. 59 м.
Битрейт : 17,8 Мбит/сек
Ширина : 1 920 пикселей
Высота : 1 080 пикселей
Соотношение сторон : 16:9
Режим частоты кадров : Постоянный
Частота кадров : 23,976 (24000/1001) кадра/сек
Цветовое пространство : YUV
Субдискретизация насыщенности : 4:2:0
Битовая глубина : 8 бит
Тип развёртки : Прогрессивная
Бит/(Пиксели*Кадры) : 0.358
Размер потока : 14,5 Гбайт (85%)
Заголовок : ~V~
Библиотека кодирования : x264 core 161 r3018 db0d417
Настройки программы : cabac=1 / ref=4 / deblock=1:-2:-2 / analyse=0x3:0x133 / me=umh / subme=10 / psy=1 / psy_rd=0.94:0.00 / mixed_ref=1 / me_range=32 / chroma_me=1 / trellis=2 / 8x8dct=1 / cqm=0 / deadzone=21,11 / fast_pskip=0 / chroma_qp_offset=-2 / threads=12 / lookahead_threads=1 / sliced_threads=0 / nr=0 / decimate=0 / interlaced=0 / bluray_compat=0 / constrained_intra=0 / bframes=11 / b_pyramid=2 / b_adapt=2 / b_bias=0 / direct=3 / weightb=1 / open_gop=0 / weightp=2 / keyint=240 / keyint_min=23 / scenecut=40 / intra_refresh=0 / rc=2pass / mbtree=0 / bitrate=17777 / ratetol=1.0 / qcomp=0.65 / qpmin=0 / qpmax=69 / qpstep=4 / cplxblur=20.0 / qblur=0.5 / ip_ratio=1.20 / pb_ratio=1.20 / aq=3:1.00
Язык : Английский
Default : Да
Forced : Нет
Duration_Source : General_Duration

Аудио #1
Идентификатор : 2
Формат : AC-3
Формат/Информация : Audio Coding 3
Коммерческое название : Dolby Digital
Идентификатор кодека : A_AC3
Продолжительность : 1 ч. 59 м.
Вид битрейта : Постоянный
Битрейт : 448 Кбит/сек
Каналы : 6 каналов
Channel layout : L R C LFE Ls Rs
Частота : 48,0 КГц
Частота кадров : 31,250 кадров/сек (1536 SPF)
Метод сжатия : С потерями
Размер потока : 383 Мбайт (2%)
Заголовок : MVO [LDV]
Язык : Русский
Service kind : Complete Main
Default : Нет
Forced : Нет
Duration_Source : General_Duration

Аудио #2
Идентификатор : 3
Формат : AC-3
Формат/Информация : Audio Coding 3
Коммерческое название : Dolby Digital
Идентификатор кодека : A_AC3
Продолжительность : 1 ч. 59 м.
Вид битрейта : Постоянный
Битрейт : 448 Кбит/сек
Каналы : 6 каналов
Channel layout : L R C LFE Ls Rs
Частота : 48,0 КГц
Частота кадров : 31,250 кадров/сек (1536 SPF)
Метод сжатия : С потерями
Размер потока : 383 Мбайт (2%)
Заголовок : MVO [Unknown]
Язык : Русский
Service kind : Complete Main
Default : Нет
Forced : Нет
Duration_Source : General_Duration

Аудио #3
Идентификатор : 4
Формат : AC-3
Формат/Информация : Audio Coding 3
Коммерческое название : Dolby Digital
Идентификатор кодека : A_AC3
Продолжительность : 1 ч. 59 м.
Вид битрейта : Постоянный
Битрейт : 192 Кбит/сек
Каналы : 2 канала
Channel layout : L R
Частота : 48,0 КГц
Частота кадров : 31,250 кадров/сек (1536 SPF)
Метод сжатия : С потерями
Размер потока : 164 Мбайт (1%)
Заголовок : DVO [Premier Video Film]
Язык : Русский
Service kind : Complete Main
Default : Нет
Forced : Нет
Duration_Source : General_Duration

Аудио #4
Идентификатор : 5
Формат : AC-3
Формат/Информация : Audio Coding 3
Коммерческое название : Dolby Digital
Идентификатор кодека : A_AC3
Продолжительность : 1 ч. 59 м.
Вид битрейта : Постоянный
Битрейт : 448 Кбит/сек
Каналы : 6 каналов
Channel layout : L R C LFE Ls Rs
Частота : 48,0 КГц
Частота кадров : 31,250 кадров/сек (1536 SPF)
Метод сжатия : С потерями
Размер потока : 383 Мбайт (2%)
Заголовок : AVO [Ю.Живов]
Язык : Русский
Service kind : Complete Main
Default : Нет
Forced : Нет
Duration_Source : General_Duration

Аудио #5
Идентификатор : 6
Формат : AC-3
Формат/Информация : Audio Coding 3
Коммерческое название : Dolby Digital
Идентификатор кодека : A_AC3
Продолжительность : 1 ч. 59 м.
Вид битрейта : Постоянный
Битрейт : 192 Кбит/сек
Каналы : 2 канала
Channel layout : L R
Частота : 48,0 КГц
Частота кадров : 31,250 кадров/сек (1536 SPF)
Метод сжатия : С потерями
Размер потока : 164 Мбайт (1%)
Заголовок : AVO [Л.Володарский]
Язык : Русский
Service kind : Complete Main
Default : Нет
Forced : Нет
Duration_Source : General_Duration

Аудио #6
Идентификатор : 7
Формат : AC-3
Формат/Информация : Audio Coding 3
Коммерческое название : Dolby Digital
Идентификатор кодека : A_AC3
Продолжительность : 1 ч. 59 м.
Вид битрейта : Постоянный
Битрейт : 384 Кбит/сек
Каналы : 6 каналов
Channel layout : L R C LFE Ls Rs
Частота : 48,0 КГц
Частота кадров : 31,250 кадров/сек (1536 SPF)
Метод сжатия : С потерями
Размер потока : 328 Мбайт (2%)
Заголовок : MVO [Inter]
Язык : Украинский
Service kind : Complete Main
Default : Нет
Forced : Нет
Duration_Source : General_Duration

Аудио #7
Идентификатор : 8
Формат : AC-3
Формат/Информация : Audio Coding 3
Коммерческое название : Dolby Digital
Идентификатор кодека : A_AC3
Продолжительность : 1 ч. 59 м.
Вид битрейта : Постоянный
Битрейт : 448 Кбит/сек
Каналы : 6 каналов
Channel layout : L R C LFE Ls Rs
Частота : 48,0 КГц
Частота кадров : 31,250 кадров/сек (1536 SPF)
Метод сжатия : С потерями
Размер потока : 383 Мбайт (2%)
Заголовок : Original
Язык : Английский
Service kind : Complete Main
Default : Да
Forced : Нет
Duration_Source : General_Duration

Текст #1
Идентификатор : 9
Формат : UTF-8
Идентификатор кодека : S_TEXT/UTF8
Идентификатор кодека/Информация : UTF-8 Plain Text
Заголовок : Full
Язык : Английский
Default : Нет
Forced : Нет

Текст #2
Идентификатор : 10
Формат : UTF-8
Идентификатор кодека : S_TEXT/UTF8
Идентификатор кодека/Информация : UTF-8 Plain Text
Заголовок : Commentary [Adrian Lyne]
Язык : Английский
Default : Нет
Forced : Нет

Меню
00:00:00.000 : :Opening Credits
00:01:59.661 : :Family Affair
00:12:34.128 : :Are You Discreet?
00:16:53.471 : :One Night Stand
00:21:46.639 : :The Morning After
00:25:59.600 : :A Walk in the Park
00:40:25.131 : :Welcome Home
00:55:06.970 : :You Play Fair, I'll Play Fair
00:59:47.334 : :Breaking and Entering
01:13:42.585 : :Car Trouble
01:16:10.399 : :play Me
01:25:48.143 : :The Rabbit
01:28:31.056 : :It's Over
01:35:27.639 : :Rollercoaster
01:40:53.422 : :Revenge
01:46:04.316 : :Bath Time
01:55:20.413 : :End Credits
Награды и номинации
Британская академия, 1989 год
Победитель (1):
* Лучший монтаж
Номинации (2):
* Лучшая мужская роль (Майкл Дуглас)
* Лучшая женская роль второго плана (Энн Арчер)

Оскар, 1988 год
Номинации (6):
* Лучший фильм
* Лучшая женская роль (Гленн Клоуз)
* Лучшая женская роль второго плана (Энн Арчер)
* Лучший режиссер (Эдриан Лайн)
* Лучший адаптированный сценарий
* Лучший монтаж

Золотой глобус, 1988 год
Номинации (4):
* Лучший фильм (драма)
* Лучшая женская роль (драма) (Гленн Клоуз)
* Лучшая женская роль второго плана (Энн Арчер)
* Лучший режиссер (Эдриан Лайн)

Сатурн, 1988 год
Номинации (1):
* Лучший сценарий


Скриншоты

Релиз от:
 

Вложения

  • 43,7 KB Просмотры: 0
    Личеров 0
    Сидеров 0
    Файлов 1
    Объем 17 GB

Привет!

Мы группа людей которые решили помочь другим в решении их проблем, а так же пользователям с поиском самых свежих и качественных инфопродуктов. За 4 с небольшим месяца мы создали этот форум на который заходят ежедневно тысячи человек и посещаемость постоянно растёт. Мы создали панель лицензирования для защиты PHP скриптов от воровства и SEO панель для мониторинга наших сайтов и выбора верной стратегии их развития. Мы надеемся что то что мы создали пригодится Вам и возможно Вы поможете нам развиваться и совершенствоваться вместе с Вами.

Статистика форума

Темы
406.698
Сообщения
465.160
Пользователи
84.777
Новый пользователь
Ritalovelera

Приложения форума для iOS и Android


У ркн там нет власти ;)
Приватные разговоры
Помощь Пользователи
    Вы не присоединились ни к одной комнате.