За последнюю неделю опубликовано 57 новых материалов.
Инструкция новичку Путеводитель по форуму Прокси для Telegram Показать подсказки , это бомба!

Скачать Рокки 4 / Rocky IV (1985) DVDRip-AVC | P, A | Fullscreen бесплатно через торрент

  • Поучаствуй (в качестве покупателя) в любых пяти совместных покупках (кроме завершённых и "Моментальных") и получи группу "Новичок" навсегда -> ссылка на раздел
  • Получай до 480 рублей за каждого приглашенного пользователя!
    представляем Вам очередное расширение партнерской программы, подробности описаны тут -> ссылка
  • 90% материалов доступно к скачиванию после простой регистрации!
    Если же ты хочешь скачивать материалы без требования оставлять отзывы то получи группу "Новичок", 10 способов повышения описаны тут -> ссылка
  • К сожалению количество битых ссылок растет и мы уже не можем их оперативно восстанавливать поэтому просим помощи у каждого нашего пользователя.
    С сегодняшнего дня, за каждую восстановленную ссылку мы заплатим Вам.
    Подробнее тут -> ссылка
  • Перенесем твои заслуги с другого ресурса!
    Мы понимаем как сложно прокачивать аккаунты на форумах, вроде раскачал аккаунт, а тут появляется ресурс в 100 раз круче но тоже с системой прокачки и снова качать аккаунт...
    Предлагаем вам перенести Ваши заслуги на другом подобном ресурсе к нам.
    Подробности описаны тут -> ссылка
  • Вы можете получать по 2.5% с каждой покупки и продажи на маркете! Подробности в теме Партнёрская программа
Если Вы не хотите скачивать, Вы всегда можетепосмотретьонлайн, просто нажмите кнопку ниже :

Открыть плеер

Torrent_Bot

Торрент-Бот
Бот форума
4 Окт 2016
92
160
20



Название: Рокки 4
Оригинальное название: Rocky IV
Год выхода: 1985
Жанр: драма, спорт
Режиссер: Сильвестр Сталлоне
В ролях: Сильвестр Сталлоне, Дольф Лундгрен, Талия Шайр, Карл Уэзерс, Берт Янг, Бриджит Нильсен, Тони Бертон, Майкл Патаки, Стью Нэхен

О фильме:
В США прибывает советский чемпион Иван Драго, чтобы провести показательный бой с лучшим боксером Америки Рокки Бальбоа. Друг Рокки, Аполло Крид, не выходивший на ринг пять лет, загорается желанием проучить наглого русского. Во время боя становится ясно, что Крид не готов дать отпор атакам Драго и после очередного мощного удара падает замертво. Потрясенный произошедшим и терзаемый чувством вины, Рокки решает драться с Драго. Отказавшись от титула чемпиона мира ради боя с любителем и согласившись на условия, выдвинутые советский стороной, он прилетает в СССР на главный бой в своей жизни...



Страна: США
Продолжительность: 01:31:29
Перевод: Профессиональный многоголосый закадровый, авторский одноголосый закадровый (Гаврилов)

Формат: MKV
Качество: DVDRip-AVC
Видео: AVC/H.264, 716x480(4:3)@716x540, 23.976 fps, ~2269 Kbps
Аудио 1: AC3, 6 ch, 384 kbps - Русский (MVO DDV)
Аудио 2: AC3, 6 ch, 384 kbps - Русский (AVO Гаврилов)
Аудио 3: AC3, 6 ch, 384 kbps - Английский
Субтитры: русские, английские

MediaInfo
General
Unique ID : 206888125390218620482748334868091084060 (0x9BA5341DFF34A2E1224F4C2721639D1C)
Complete name : D:Рокки 4 (1985) DVDRip-AVC Fullscreen.mkv
Format : Matroska
Format version : Version 4
File size : 2.19 GiB
Duration : 1 h 31 min
Overall bit rate : 3 422 kb/s
Encoded date : UTC 2018-06-29 17:24:04
Writing application : mkvmerge v24.0.0 ('Beyond The Pale') 64-bit
Writing library : libebml v1.3.6 + libmatroska v1.4.9

Video
ID : 1
Format : AVC
Format/Info : Advanced Video Codec
Format profile : [email protected]
Format settings : CABAC / 8 Ref Frames
Format settings, CABAC : Yes
Format settings, Reference : 8 frames
Codec ID : V_MPEG4/ISO/AVC
Duration : 1 h 31 min
Bit rate : 2 269 kb/s
Width : 716 pixels
Height : 480 pixels
Display aspect ratio : 4:3
Frame rate mode : Constant
Frame rate : 23.976 (24000/1001) FPS
Color space : YUV
Chroma subsampling : 4:2:0
Bit depth : 8 bits
Scan type : Progressive
Bits/(Pixel*Frame) : 0.275
Stream size : 1.45 GiB (66%)
Writing library : x264 core 155 r2901 7d0ff22
Encoding settings : cabac=1 / ref=8 / deblock=1:-2:-2 / analyse=0x3:0x133 / me=umh / subme=9 / psy=1 / psy_rd=1.00:0.17 / mixed_ref=1 / me_range=32 / chroma_me=1 / trellis=2 / 8x8dct=1 / cqm=0 / deadzone=21,11 / fast_pskip=1 / chroma_qp_offset=-3 / threads=3 / lookahead_threads=1 / sliced_threads=0 / nr=0 / decimate=1 / interlaced=0 / bluray_compat=0 / constrained_intra=0 / bframes=10 / b_pyramid=2 / b_adapt=2 / b_bias=0 / direct=3 / weightb=1 / open_gop=0 / weightp=2 / keyint=240 / keyint_min=23 / scenecut=40 / intra_refresh=0 / rc=2pass / mbtree=0 / bitrate=2269 / ratetol=1.0 / qcomp=0.60 / qpmin=0 / qpmax=69 / qpstep=4 / cplxblur=20.0 / qblur=0.5 / ip_ratio=1.40 / pb_ratio=1.30 / aq=1:0.90
Default : Yes
Forced : No

Audio #1
ID : 2
Format : AC-3
Format/Info : Audio Coding 3
Commercial name : Dolby Digital
Codec ID : A_AC3
Duration : 1 h 31 min
Bit rate mode : Constant
Bit rate : 384 kb/s
Channel(s) : 6 channels
Channel layout : L R C LFE Ls Rs
Sampling rate : 48.0 kHz
Frame rate : 31.250 FPS (1536 SPF)
Bit depth : 16 bits
Compression mode : Lossy
Stream size : 251 MiB (11%)
Title : MVO DDV
Language : Russian
Service kind : Complete Main
Default : Yes
Forced : No

Audio #2
ID : 3
Format : AC-3
Format/Info : Audio Coding 3
Commercial name : Dolby Digital
Codec ID : A_AC3
Duration : 1 h 31 min
Bit rate mode : Constant
Bit rate : 384 kb/s
Channel(s) : 6 channels
Channel layout : L R C LFE Ls Rs
Sampling rate : 48.0 kHz
Frame rate : 31.250 FPS (1536 SPF)
Bit depth : 16 bits
Compression mode : Lossy
Stream size : 251 MiB (11%)
Title : AVO Андрей Гаврилов
Language : Russian
Service kind : Complete Main
Default : No
Forced : No

Audio #3
ID : 4
Format : AC-3
Format/Info : Audio Coding 3
Commercial name : Dolby Digital
Codec ID : A_AC3
Duration : 1 h 31 min
Bit rate mode : Constant
Bit rate : 384 kb/s
Channel(s) : 6 channels
Channel layout : L R C LFE Ls Rs
Sampling rate : 48.0 kHz
Frame rate : 31.250 FPS (1536 SPF)
Bit depth : 16 bits
Compression mode : Lossy
Stream size : 251 MiB (11%)
Title : Оригинал
Language : English
Service kind : Complete Main
Default : No
Forced : No

Text #1
ID : 5
Format : UTF-8
Codec ID : S_TEXT/UTF8
Codec ID/Info : UTF-8 Plain Text
Duration : 1 h 26 min
Bit rate : 78 b/s
Count of elements : 995
Stream size : 49.5 KiB (0%)
Language : Russian
Default : No
Forced : No

Text #2
ID : 6
Format : UTF-8
Codec ID : S_TEXT/UTF8
Codec ID/Info : UTF-8 Plain Text
Duration : 1 h 29 min
Bit rate : 69 b/s
Count of elements : 1432
Stream size : 45.4 KiB (0%)
Language : English
Default : No
Forced : No

Menu
00:00:00.000 : :Main Title; Family
00:08:02.817 : :Drago Arrives
00:12:33.586 : :Apollo's Challenge
00:20:09.210 : :Living in America
00:26:18.036 : :Apollo vs Drago
00:33:54.868 : :"I'm a Fighter"
00:41:18.769 : :No Easy Way Out
00:45:45.035 : :Father & Son
00:48:20.900 : :Burning Heart; Russia
00:55:04.970 : :Training Warriors
00:59:55.760 : :Hearts on Fire
01:04:09.264 : :"Death from Above"
01:09:57.486 : :Rocky vs Drago
01:20:37.376 : :The Final Round
01:24:49.211 : :"Everyone Can Change"
01:27:20.946 : :End Credits
Сравнения:


Скриншоты

 

Вложения

  • 11,8 KB Просмотры: 0
    Личеров 0
    Сидеров 0
    Файлов 1
    Объем 2,2 GB

Привет!

Мы группа людей которые решили помочь другим в решении их проблем, а так же пользователям с поиском самых свежих и качественных инфопродуктов. За 4 с небольшим месяца мы создали этот форум на который заходят ежедневно тысячи человек и посещаемость постоянно растёт. Мы создали панель лицензирования для защиты PHP скриптов от воровства и SEO панель для мониторинга наших сайтов и выбора верной стратегии их развития. Мы надеемся что то что мы создали пригодится Вам и возможно Вы поможете нам развиваться и совершенствоваться вместе с Вами.

Статистика форума

Темы
406.651
Сообщения
465.096
Пользователи
84.640
Новый пользователь
kvach

Приложения форума для iOS и Android


У ркн там нет власти ;)
Приватные разговоры
Помощь Пользователи
    Вы не присоединились ни к одной комнате.