За последнюю неделю опубликовано 30 новых материалов.
Инструкция новичку Путеводитель по форуму Прокси для Telegram Показать подсказки , это бомба!

Скачать Рокки 3 / Rocky III (1982) DVDRip-AVC | P, A | Fullscreen бесплатно через торрент

  • Поучаствуй (в качестве покупателя) в любых пяти совместных покупках (кроме завершённых и "Моментальных") и получи группу "Новичок" навсегда -> ссылка на раздел
  • Получай до 480 рублей за каждого приглашенного пользователя!
    представляем Вам очередное расширение партнерской программы, подробности описаны тут -> ссылка
  • 90% материалов доступно к скачиванию после простой регистрации!
    Если же ты хочешь скачивать материалы без требования оставлять отзывы то получи группу "Новичок", 10 способов повышения описаны тут -> ссылка
  • К сожалению количество битых ссылок растет и мы уже не можем их оперативно восстанавливать поэтому просим помощи у каждого нашего пользователя.
    С сегодняшнего дня, за каждую восстановленную ссылку мы заплатим Вам.
    Подробнее тут -> ссылка
  • Перенесем твои заслуги с другого ресурса!
    Мы понимаем как сложно прокачивать аккаунты на форумах, вроде раскачал аккаунт, а тут появляется ресурс в 100 раз круче но тоже с системой прокачки и снова качать аккаунт...
    Предлагаем вам перенести Ваши заслуги на другом подобном ресурсе к нам.
    Подробности описаны тут -> ссылка
  • Вы можете получать по 2.5% с каждой покупки и продажи на маркете! Подробности в теме Партнёрская программа
Если Вы не хотите скачивать, Вы всегда можетепосмотретьонлайн, просто нажмите кнопку ниже :

Открыть плеер

Torrent_Bot

Торрент-Бот
Бот форума
4 Окт 2016
93
160
20



Название: Рокки 3
Оригинальное название: Rocky III
Год выхода: 1982
Жанр: драма, спорт
Режиссер: Сильвестр Сталлоне
В ролях: Сильвестр Сталлоне, Талия Шайр, Берт Янг, Карл Уэзерс, Бёрджесс Мередит, Тони Бертон, Мистер Ти, Халк Хоган, Йен Фрид

О фильме:
После победы над Аполло Кридом Рокки стал чемпионом мира в тяжёлом весе. За три года он десять раз успешно защищал свой титул. Вместе с известностью приходит и богатство - Рокки делает сессии для модных журналов, появляется в рекламе. В то же самое время амбициозный боксёр Джеймс "Клаббер" Лэнг, чем-то напоминающий Рокки в начале его пути, неустанно тренируется, одерживает победу за победой и становится претендентом номер один на титул чемпиона. Во время открытия своей статуи в Филадельфии Рокки объявляет об уходе из бокса. В этот момент появляется Клаббер Лэнг, вызывает Рокки на бой и критикует все его последние бои, говоря, что они подстроены. Рокки соглашается на бой. Тренер Микки признается Рокки, что все его противники действительно были подобраны. Он также говорит, что время Рокки прошло, и что у него нет никакого шанса победить Клаббера. В итоге Рокки все-таки выходит на бой против Лэнга и проигрывает. Готовясь к реваншу, Рокки едет в Лос-Анджелес, где начинает тренироваться под руководством Крида и пытается понять себя.



Страна: США
Продолжительность: 01:39:33
Перевод: Профессиональный (многоголосый закадровый), авторский (одноголосый закадровый)

Формат: MKV
Качество: DVDRip-AVC
Видео: AVC/H.264, 718x480(4:3)@718x540, 23.976 fps, ~1991 Kbps
Аудио 1: AC3, 6 ch, 384 kbps - Русский (MVO DDV)
Аудио 2: AC3, 6 ch, 384 kbps - Русский (AVO Гаврилов)
Аудио 3: AC3, 6 ch, 384 kbps - Английский
Субтитры: русские, английские

MediaInfo
General
Unique ID : 333892417622081159256100276682398752875 (0xFB31572CFD146CE722F2F70F0C01E06B)
Complete name : D:Рокки 3 (1982) DVDRip-AVC Fullscreen.mkv
Format : Matroska
Format version : Version 4
File size : 2.19 GiB
Duration : 1 h 39 min
Overall bit rate : 3 145 kb/s
Encoded date : UTC 2018-07-04 11:19:06
Writing application : mkvmerge v24.0.0 ('Beyond The Pale') 64-bit
Writing library : libebml v1.3.6 + libmatroska v1.4.9

Video
ID : 1
Format : AVC
Format/Info : Advanced Video Codec
Format profile : [email protected]
Format settings : CABAC / 8 Ref Frames
Format settings, CABAC : Yes
Format settings, Reference : 8 frames
Codec ID : V_MPEG4/ISO/AVC
Duration : 1 h 39 min
Bit rate : 1 991 kb/s
Width : 718 pixels
Height : 480 pixels
Display aspect ratio : 4:3
Frame rate mode : Constant
Frame rate : 23.976 (24000/1001) FPS
Color space : YUV
Chroma subsampling : 4:2:0
Bit depth : 8 bits
Scan type : Progressive
Bits/(Pixel*Frame) : 0.241
Stream size : 1.38 GiB (63%)
Writing library : x264 core 155 r2901 7d0ff22
Encoding settings : cabac=1 / ref=8 / deblock=1:-2:-2 / analyse=0x3:0x133 / me=umh / subme=9 / psy=1 / psy_rd=1.00:0.20 / mixed_ref=1 / me_range=32 / chroma_me=1 / trellis=2 / 8x8dct=1 / cqm=0 / deadzone=21,11 / fast_pskip=1 / chroma_qp_offset=-3 / threads=3 / lookahead_threads=1 / sliced_threads=0 / nr=0 / decimate=1 / interlaced=0 / bluray_compat=0 / constrained_intra=0 / bframes=10 / b_pyramid=2 / b_adapt=2 / b_bias=0 / direct=3 / weightb=1 / open_gop=0 / weightp=2 / keyint=240 / keyint_min=23 / scenecut=40 / intra_refresh=0 / rc=2pass / mbtree=0 / bitrate=1991 / ratetol=1.0 / qcomp=0.60 / qpmin=0 / qpmax=69 / qpstep=4 / cplxblur=20.0 / qblur=0.5 / ip_ratio=1.40 / pb_ratio=1.30 / aq=1:0.70
Default : Yes
Forced : No

Audio #1
ID : 2
Format : AC-3
Format/Info : Audio Coding 3
Commercial name : Dolby Digital
Codec ID : A_AC3
Duration : 1 h 39 min
Bit rate mode : Constant
Bit rate : 384 kb/s
Channel(s) : 6 channels
Channel layout : L R C LFE Ls Rs
Sampling rate : 48.0 kHz
Frame rate : 31.250 FPS (1536 SPF)
Bit depth : 16 bits
Compression mode : Lossy
Stream size : 274 MiB (12%)
Title : MVO DDV
Language : Russian
Service kind : Complete Main
Default : Yes
Forced : No

Audio #2
ID : 3
Format : AC-3
Format/Info : Audio Coding 3
Commercial name : Dolby Digital
Codec ID : A_AC3
Duration : 1 h 39 min
Bit rate mode : Constant
Bit rate : 384 kb/s
Channel(s) : 6 channels
Channel layout : L R C LFE Ls Rs
Sampling rate : 48.0 kHz
Frame rate : 31.250 FPS (1536 SPF)
Bit depth : 16 bits
Compression mode : Lossy
Stream size : 274 MiB (12%)
Title : AVO Андрей Гаврилов
Language : Russian
Service kind : Complete Main
Default : No
Forced : No

Audio #3
ID : 4
Format : AC-3
Format/Info : Audio Coding 3
Commercial name : Dolby Digital
Codec ID : A_AC3
Duration : 1 h 39 min
Bit rate mode : Constant
Bit rate : 384 kb/s
Channel(s) : 6 channels
Channel layout : L R C LFE Ls Rs
Sampling rate : 48.0 kHz
Frame rate : 31.250 FPS (1536 SPF)
Bit depth : 16 bits
Compression mode : Lossy
Stream size : 274 MiB (12%)
Title : Оригинал
Language : English
Service kind : Complete Main
Default : No
Forced : No

Text #1
ID : 5
Format : UTF-8
Codec ID : S_TEXT/UTF8
Codec ID/Info : UTF-8 Plain Text
Duration : 1 h 35 min
Bit rate : 106 b/s
Count of elements : 1460
Stream size : 74.3 KiB (0%)
Language : Russian
Default : No
Forced : No

Text #2
ID : 6
Format : UTF-8
Codec ID : S_TEXT/UTF8
Codec ID/Info : UTF-8 Plain Text
Duration : 1 h 38 min
Bit rate : 81 b/s
Count of elements : 1709
Stream size : 58.7 KiB (0%)
Language : English
Default : No
Forced : No

Menu
00:00:00.000 : :Title; Champion
00:03:10.442 : :Defender
00:06:49.953 : :Credits; Poor Paulie
00:12:56.736 : :Thunder Lips
00:23:05.636 : :One More Fight
00:33:43.940 : :Cross-training
00:37:54.816 : :Clubber Lang
00:48:25.154 : :Mourning Mickey
00:54:39.695 : :Eye of the Tiger
00:58:52.948 : :New Beginning
01:03:37.482 : :No Tomorrow
01:10:42.615 : :pep Talk
01:15:26.690 : :Getting Strong
01:18:52.146 : :"Go For It!"
01:34:30.958 : :Favor
01:36:23.237 : :End Credits
Сравнения:




Скриншоты

 

Вложения

  • 11,9 KB Просмотры: 0
    Личеров 0
    Сидеров 0
    Файлов 1
    Объем 2,2 GB

Привет!

Мы группа людей которые решили помочь другим в решении их проблем, а так же пользователям с поиском самых свежих и качественных инфопродуктов. За 4 с небольшим месяца мы создали этот форум на который заходят ежедневно тысячи человек и посещаемость постоянно растёт. Мы создали панель лицензирования для защиты PHP скриптов от воровства и SEO панель для мониторинга наших сайтов и выбора верной стратегии их развития. Мы надеемся что то что мы создали пригодится Вам и возможно Вы поможете нам развиваться и совершенствоваться вместе с Вами.

Статистика форума

Темы
406.605
Сообщения
465.025
Пользователи
84.383
Новый пользователь
wazice

Приложения форума для iOS и Android


У ркн там нет власти ;)
Приватные разговоры
Помощь Пользователи
    Вы не присоединились ни к одной комнате.