За последнюю неделю опубликовано 32 новых материалов.
Инструкция новичку Путеводитель по форуму Прокси для Telegram Показать подсказки , это бомба!

Скачать Робин Гуд / Robin Hood (2010) BDRip 1080p | D, Р | Театральная версия бесплатно через торрент

  • Поучаствуй (в качестве покупателя) в любых пяти совместных покупках (кроме завершённых и "Моментальных") и получи группу "Новичок" навсегда -> ссылка на раздел
  • Получай до 480 рублей за каждого приглашенного пользователя!
    представляем Вам очередное расширение партнерской программы, подробности описаны тут -> ссылка
  • 90% материалов доступно к скачиванию после простой регистрации!
    Если же ты хочешь скачивать материалы без требования оставлять отзывы то получи группу "Новичок", 10 способов повышения описаны тут -> ссылка
  • К сожалению количество битых ссылок растет и мы уже не можем их оперативно восстанавливать поэтому просим помощи у каждого нашего пользователя.
    С сегодняшнего дня, за каждую восстановленную ссылку мы заплатим Вам.
    Подробнее тут -> ссылка
  • Перенесем твои заслуги с другого ресурса!
    Мы понимаем как сложно прокачивать аккаунты на форумах, вроде раскачал аккаунт, а тут появляется ресурс в 100 раз круче но тоже с системой прокачки и снова качать аккаунт...
    Предлагаем вам перенести Ваши заслуги на другом подобном ресурсе к нам.
    Подробности описаны тут -> ссылка
  • Вы можете получать по 2.5% с каждой покупки и продажи на маркете! Подробности в теме Партнёрская программа
Если Вы не хотите скачивать, Вы всегда можетепосмотретьонлайн, просто нажмите кнопку ниже :

Открыть плеер

Torrent_Bot

Торрент-Бот
Бот форума
4 Окт 2016
93
160
20

Информация о фильме
Название: Робин Гуд
Оригинальное название: Robin Hood
Год выхода: 2010
Жанр: Боевик, приключения, драма
Режиссер: Ридли Скотт
В ролях: Рассел Кроу, Кейт Бланшетт, Макс фон Сюдов, Уильям Хёрт, Марк Стронг, Оскар Айзек, Дэнни Хьюстон, Айлин Эткинс, Марк Эдди, Мэтью Макфейден
О фильме:
История лучника армии Ричарда Львиное Сердце, который борется против нормандских захватчиков и становится легендарным героем, известным под именем Робин Гуд.

Выпущено: США, Великобритания / Imagine Entertainment, Relativity Media, Scott Free Productions, Universal Pictures
Продолжительность: 02:20:20
Перевод: Дублированный, профессиональный многоголосый
Файл
Кодек: MPEG-4 AVC
Качество: BDRip 1080p
Видео: 1920x800 23,976 fps, 11045 kbps
Звук:
Russian: AC3, 640 Kbps (6 ch) Дублированный (Blu-ray CEE)
Ukrainian: AC3, 192 Kbps (2 ch) Профессиональный многоголосый
English: AC3, 640 Kbps (6 ch) Original
Субтитры: Russian (Forced), English
Семпл
MediaInfo & x264
Уникальный идентификатор : 170508626024797087680397340566810174799 (0x8046C4512EBEC56AB2291363B292A54F)
Полное имя : Robin.Hood.2010.х264.BDRip.1080р.mkv
Формат : Matroska
Версия формата : Version 4 / Version 2
Размер файла : 12,3 Гбайт
Продолжительность : 2 ч. 20 м.
Общий поток : 12,5 Мбит/сек
Название фильма : ☭WIDDER☭
Дата кодирования : UTC 2014-03-07 21:59:21
Программа кодирования : mkvmerge v6.0.0 ('Coming Up For Air') built on Jan 20 2013 09:52:00
Библиотека кодирования : libebml v1.3.0 + libmatroska v1.4.0

Видео
Идентификатор : 1
Формат : AVC
Формат/Информация : Advanced Video Codec
Профиль формата : [email protected]
Параметр CABAC формата : Да
Параметр ReFrames формата : 5 кадров
Идентификатор кодека : V_MPEG4/ISO/AVC
Продолжительность : 2 ч. 20 м.
Битрейт : 11,0 Мбит/сек
Ширина : 1920 пикселей
Высота : 800 пикселей
Соотношение сторон : 2,40:1
Частота кадров : 23,976 кадра/сек
Цветовое пространство : YUV
Субдискретизация насыщенности : 4:2:0
Битовая глубина : 8 бит
Тип развёртки : Прогрессивная
Бит/(Пиксели*Кадры) : 0.300
Размер потока : 10,6 Гбайт (86%)
Заголовок : Robin Hood (2010)
Библиотека кодирования : x264 core 140 r2377 1ca7bb9
Настройки программы : cabac=1 / ref=5 / deblock=1:-3:-3 / analyse=0x3:0x133 / me=umh / subme=11 / psy=1 / psy_rd=1.00:0.00 / mixed_ref=1 / me_range=48 / chroma_me=1 / trellis=2 / 8x8dct=1 / cqm=0 / deadzone=21,11 / fast_pskip=0 / chroma_qp_offset=-2 / threads=12 / lookahead_threads=2 / sliced_threads=0 / nr=0 / decimate=1 / interlaced=0 / bluray_compat=0 / constrained_intra=0 / bframes=9 / b_pyramid=2 / b_adapt=2 / b_bias=0 / direct=3 / weightb=1 / open_gop=0 / weightp=2 / keyint=240 / keyint_min=23 / scenecut=40 / intra_refresh=0 / rc_lookahead=60 / rc=2pass / mbtree=0 / bitrate=11045 / ratetol=1.0 / qcomp=0.60 / qpmin=0 / qpmax=69 / qpstep=4 / cplxblur=20.0 / qblur=0.5 / vbv_maxrate=50000 / vbv_bufsize=62500 / nal_hrd=none / filler=0 / ip_ratio=1.40 / pb_ratio=1.30 / aq=1:0.90
Язык : English
Default : Да
Forced : Нет

Аудио #1
Идентификатор : 2
Формат : AC-3
Формат/Информация : Audio Coding 3
Расширение режима : CM (complete main)
Параметр Endianness формата : Big
Идентификатор кодека : A_AC3
Продолжительность : 2 ч. 20 м.
Вид битрейта : Постоянный
Битрейт : 640 Кбит/сек
Каналы : 6 каналов
Расположение каналов : Front: L C R, Side: L R, LFE
Частота : 48,0 КГц
Битовая глубина : 16 бит
Метод сжатия : С потерями
Размер потока : 642 Мбайт (5%)
Заголовок : AC3, 640 Kbps (6 ch) Дублированный (Blu-ray CEE)
Язык : Russian
Default : Да
Forced : Нет

Аудио #2
Идентификатор : 3
Формат : AC-3
Формат/Информация : Audio Coding 3
Расширение режима : CM (complete main)
Параметр Endianness формата : Big
Идентификатор кодека : A_AC3
Продолжительность : 2 ч. 20 м.
Вид битрейта : Постоянный
Битрейт : 192 Кбит/сек
Каналы : 2 канала
Расположение каналов : Front: L R
Частота : 48,0 КГц
Битовая глубина : 16 бит
Метод сжатия : С потерями
Размер потока : 193 Мбайт (2%)
Заголовок : AC3, 192 Kbps (2 ch) Профессиональный многоголосый
Язык : Ukrainian
Default : Нет
Forced : Нет

Аудио #3
Идентификатор : 4
Формат : AC-3
Формат/Информация : Audio Coding 3
Расширение режима : CM (complete main)
Параметр Endianness формата : Big
Идентификатор кодека : A_AC3
Продолжительность : 2 ч. 20 м.
Вид битрейта : Постоянный
Битрейт : 640 Кбит/сек
Каналы : 6 каналов
Расположение каналов : Front: L C R, Side: L R, LFE
Частота : 48,0 КГц
Битовая глубина : 16 бит
Метод сжатия : С потерями
Размер потока : 642 Мбайт (5%)
Заголовок : AC3, 640 Kbps (6 ch) Original
Язык : English
Default : Нет
Forced : Нет

Текст #1
Идентификатор : 5
Формат : UTF-8
Идентификатор кодека : S_TEXT/UTF8
Идентификатор кодека/Информация : UTF-8 Plain Text
Заголовок : (Forced)
Язык : Russian
Default : Да
Forced : Нет

Текст #2
Идентификатор : 6
Формат : UTF-8
Идентификатор кодека : S_TEXT/UTF8
Идентификатор кодека/Информация : UTF-8 Plain Text
Язык : English
Default : Нет
Forced : Нет

Меню
00:00:00.000 : :Chapter 01
00:11:30.272 : :Chapter 02
00:17:51.737 : :Chapter 03
00:22:14.082 : :Chapter 04
00:30:29.786 : :Chapter 05
00:35:20.409 : :Chapter 06
00:44:32.377 : :Chapter 07
00:51:09.232 : :Chapter 08
00:58:44.187 : :Chapter 09
01:04:26.862 : :Chapter 10
01:14:00.769 : :Chapter 11
01:22:53.301 : :Chapter 12
01:28:44.819 : :Chapter 13
01:35:04.698 : :Chapter 14
01:41:46.224 : :Chapter 15
01:48:05.520 : :Chapter 16
01:53:59.832 : :Chapter 17
02:03:00.581 : :Chapter 18
02:07:20.424 : :Chapter 19
02:11:40.350 : :Chapter 20
____________________________________________
x264 [info]: frame I:1411 Avg QP:17.15 size:242849
x264 [info]: frame P:50761 Avg QP:19.55 size: 92700
x264 [info]: frame B:149716 Avg QP:21.88 size: 43898
x264 [info]: consecutive B-frames: 3.7% 5.2% 17.5% 14.0% 15.4% 39.0% 3.4% 0.8% 0.6% 0.6%



Релиз от:
 

Вложения

  • 62,4 KB Просмотры: 0
    Личеров 0
    Сидеров 0
    Файлов 1
    Объем 12,3 GB

Привет!

Мы группа людей которые решили помочь другим в решении их проблем, а так же пользователям с поиском самых свежих и качественных инфопродуктов. За 4 с небольшим месяца мы создали этот форум на который заходят ежедневно тысячи человек и посещаемость постоянно растёт. Мы создали панель лицензирования для защиты PHP скриптов от воровства и SEO панель для мониторинга наших сайтов и выбора верной стратегии их развития. Мы надеемся что то что мы создали пригодится Вам и возможно Вы поможете нам развиваться и совершенствоваться вместе с Вами.

Статистика форума

Темы
406.613
Сообщения
465.071
Пользователи
84.482
Новый пользователь
IrinaVego

Приложения форума для iOS и Android


У ркн там нет власти ;)
Приватные разговоры
Помощь Пользователи
    Вы не присоединились ни к одной комнате.