За последнюю неделю опубликовано 180 новых материалов.
Инструкция новичку Путеводитель по форуму Прокси для Telegram Показать подсказки , это бомба!

Скачать Риорита (2008) DVDRip-AVC бесплатно через торрент

  • Поучаствуй (в качестве покупателя) в любых пяти совместных покупках (кроме завершённых и "Моментальных") и получи группу "Новичок" навсегда -> ссылка на раздел
  • Получай до 480 рублей за каждого приглашенного пользователя!
    представляем Вам очередное расширение партнерской программы, подробности описаны тут -> ссылка
  • 90% материалов доступно к скачиванию после простой регистрации!
    Если же ты хочешь скачивать материалы без требования оставлять отзывы то получи группу "Новичок", 10 способов повышения описаны тут -> ссылка
  • К сожалению количество битых ссылок растет и мы уже не можем их оперативно восстанавливать поэтому просим помощи у каждого нашего пользователя.
    С сегодняшнего дня, за каждую восстановленную ссылку мы заплатим Вам.
    Подробнее тут -> ссылка
  • Перенесем твои заслуги с другого ресурса!
    Мы понимаем как сложно прокачивать аккаунты на форумах, вроде раскачал аккаунт, а тут появляется ресурс в 100 раз круче но тоже с системой прокачки и снова качать аккаунт...
    Предлагаем вам перенести Ваши заслуги на другом подобном ресурсе к нам.
    Подробности описаны тут -> ссылка
  • Вы можете получать по 2.5% с каждой покупки и продажи на маркете! Подробности в теме Партнёрская программа
Если Вы не хотите скачивать, Вы всегда можетепосмотретьонлайн, просто нажмите кнопку ниже :

Открыть плеер

Torrent_Bot

Торрент-Бот
Бот форума
4 Окт 2016
124
94
20



Информация о фильме
Название: Риорита
Оригинальное название: Риорита
Год выхода: 2008
Жанр: Военный, драма
Режиссер: Петр Тодоровский
В ролях: Константин Воробьев, Алексей Горбунов, Анатолий Гущин, Иван Криворучко, Дмитрий Ульянов, Яков Шамшин

О фильме:
Главные герои фильма – семья Пичуговых – отец и три сына. Их мобилизовали в маленьком белорусском селе, освобожденном от немецкой оккупации в конце 1944 года. И потом они влились в армейское подразделение, успешно наступающее на Запад в начале 1945 года.



Выпущено: Россия, Рекун-Синема
Продолжительность: 01:37:21
Озвучивание: Оригинал
Субтитры: Нет

Файл
Формат: Matroska
Качество: DVDRip-AVC
Видео: 704=>750x412 at 25.00 fps, x264, ~2110 kbps, 0.291 bpp
Аудио: AC3, 2 ch, ~256 kbps

***Релиз от:-=DoMiNo=-

M/I
x264 info: frame I:989 Avg QP:15.25 size: 45504
x264 info: frame P:27899 Avg QP:16.76 size: 21908
x264 info: frame B:117161 Avg QP:19.06 size: 7828
x264 info: consecutive B-frames: 1.0% 0.7% 3.4% 16.3% 10.8% 61.4% 3.5% 1.0% 0.5% 0.1% 0.1% 1.2% 0.0%

General
Complete name : Риорита.(2008).DVDRip-AVC.[-=DoMiNo=-].mkv
Format : Matroska
Format version : Version 4
File size : 1.64 GiB
Duration : 1 h 37 min
Overall bit rate : 2 414 kb/s
Movie name : Риорита
Deion : Бывший надзиратель лагеря политзаключенных Бархатов, оказавшись на войне рядовым ефрейтором, не сумел, да и не захотел измениться в новых обстоятельствах и так и остался лагерным «вертухаем». И на войне, оказавшись вместе с наивными деревенскими людьми, он устроил маленький «кукольный» театр, где стал главным «кукловодом».Главные герои фильма — семья Пичуговых — отец и три сына. Их мобилизовали в маленьком белорусском селе, освобожденном от немецкой оккупации в конце 1944 года. И потом они влились в армейское подразделение, успешно наступающее на Запад в начале 1945 года.В одном взводе с семьей и оказался ефрейтор Бархатов. Сам того не желая (такова натура) и пользуясь наивностью и необразованностью четырех крестьян, он затевает дьявольскую игру.
Attachments : poster
ACTORS : Яков Шамшин, Константин Воробьёв, Алексей Горбунов, Анатолий Гущин, Иван Криворучко, Алеся Пуховая, Виктор Рыбчинский, Дмитрий Ульянов, Алексей Шедько, Петр Юрченков
COUNTRY : Россия
DATE : 2008
DIRECTOR : Петр Тодоровский
GENRE : Драма, Военный

Video
ID : 1
Format : AVC
Format/Info : Advanced Video Codec
Format profile : High@L4.1
Format settings : CABAC / 12 Ref Frames
Format settings, CABAC : Yes
Format settings, Reference : 12 frames
Codec ID : V_MPEG4/ISO/AVC
Duration : 1 h 37 min
Bit rate : 2 110 kb/s
Width : 704 pixels
Height : 412 pixels
Display aspect ratio : 1.85:1
Frame rate mode : Constant
Frame rate : 25.000 FPS
Color space : YUV
Chroma subsampling : 4:2:0
Bit depth : 8 bits
Scan type : Progressive
Bits/(Pixel*Frame) : 0.291
Stream size : 1.43 GiB (87%)
Title : RIP_BY_-=DoMiNo=-
Writing library : x264 core 157 r2958 57baac4
Encoding settings : cabac=1 / ref=12 / deblock=1:-2:-2 / analyse=0x3:0x133 / me=umh / subme=11 / psy=1 / psy_rd=1.00:0.15 / mixed_ref=1 / me_range=32 / chroma_me=1 / trellis=2 / 8x8dct=1 / cqm=0 / deadzone=21,11 / fast_pskip=1 / chroma_qp_offset=-3 / threads=6 / lookahead_threads=1 / sliced_threads=0 / nr=0 / decimate=1 / interlaced=0 / bluray_compat=0 / constrained_intra=0 / bframes=12 / b_pyramid=2 / b_adapt=2 / b_bias=0 / direct=1 / weightb=1 / open_gop=0 / weightp=2 / keyint=250 / keyint_min=25 / scenecut=40 / intra_refresh=0 / rc_lookahead=60 / rc=crf / mbtree=0 / crf=17.0 / qcomp=0.70 / qpmin=0 / qpmax=69 / qpstep=4 / vbv_maxrate=50000 / vbv_bufsize=62500 / crf_max=30.0 / nal_hrd=none / filler=0 / ip_ratio=1.40 / pb_ratio=1.30 / aq=3:0.80
Language : English
Default : Yes
Forced : No
Color range : Limited

Audio
ID : 2
Format : AC-3
Format/Info : Audio Coding 3
Commercial name : Dolby Digital
Codec ID : A_AC3
Duration : 1 h 37 min
Bit rate mode : Constant
Bit rate : 256 kb/s
Channel(s) : 2 channels
Channel layout : L R
Sampling rate : 48.0 kHz
Frame rate : 31.250 FPS (1536 SPF)
Bit depth : 16 bits
Compression mode : Lossy
Stream size : 178 MiB (11%)
Language : English
Service kind : Complete Main
Default : Yes
Forced : No

Menu
00:00:00.080 : :Chapter 01
00:06:04.400 : :Chapter 02
00:12:23.120 : :Chapter 03
00:18:29.840 : :Chapter 04
00:24:06.320 : :Chapter 05
00:30:20.720 : :Chapter 06
00:36:16.400 : :Chapter 07
00:42:10.640 : :Chapter 08
00:48:14.480 : :Chapter 09
00:54:18.320 : :Chapter 10
01:00:21.680 : :Chapter 11
01:06:06.800 : :Chapter 12
01:12:27.920 : :Chapter 13
01:18:08.240 : :Chapter 14
01:24:17.360 : :Chapter 15
01:30:15.440 : :Chapter 16
01:36:24.560 : :Chapter 17
Скриншоты
 

Вложения

  • 17,3 KB Просмотры: 0
    Личеров 0
    Сидеров 0
    Файлов 1
    Объем 1,6 GB
Ваш e-mail не будет опубликован. Он потребуется для подтверждения Вашего поста.
Оформление текста Нажмите «Ввод», чтобы отправить ответ.

Привет!

Мы группа людей которые решили помочь другим в решении их проблем, а так же пользователям с поиском самых свежих и качественных инфопродуктов. За 4 с небольшим месяца мы создали этот форум на который заходят ежедневно тысячи человек и посещаемость постоянно растёт. Мы создали панель лицензирования для защиты PHP скриптов от воровства и SEO панель для мониторинга наших сайтов и выбора верной стратегии их развития. Мы надеемся что то что мы создали пригодится Вам и возможно Вы поможете нам развиваться и совершенствоваться вместе с Вами.

Статистика форума

Темы
378.719
Сообщения
417.958
Пользователи
49.510
Новый пользователь
mirqurbon

Приложения форума для iOS и Android


У ркн там нет власти ;)
Приватные разговоры
Помощь Пользователи
    Вы не присоединились ни к одной комнате.