За последнюю неделю опубликовано 190 новых материалов.
Инструкция новичку Путеводитель по форуму Прокси для Telegram Показать подсказки , это бомба!

Скачать Рим / Rome [S01-02] (2005-2007) HDRip | НТВ+ бесплатно через торрент

  • Поучаствуй (в качестве покупателя) в любых пяти совместных покупках (кроме завершённых и "Моментальных") и получи группу "Новичок" навсегда -> ссылка на раздел
  • Получай до 480 рублей за каждого приглашенного пользователя!
    представляем Вам очередное расширение партнерской программы, подробности описаны тут -> ссылка
  • 90% материалов доступно к скачиванию после простой регистрации!
    Если же ты хочешь скачивать материалы без требования оставлять отзывы то получи группу "Новичок", 10 способов повышения описаны тут -> ссылка
  • К сожалению количество битых ссылок растет и мы уже не можем их оперативно восстанавливать поэтому просим помощи у каждого нашего пользователя.
    С сегодняшнего дня, за каждую восстановленную ссылку мы заплатим Вам.
    Подробнее тут -> ссылка
  • Перенесем твои заслуги с другого ресурса!
    Мы понимаем как сложно прокачивать аккаунты на форумах, вроде раскачал аккаунт, а тут появляется ресурс в 100 раз круче но тоже с системой прокачки и снова качать аккаунт...
    Предлагаем вам перенести Ваши заслуги на другом подобном ресурсе к нам.
    Подробности описаны тут -> ссылка
  • Вы можете получать по 2.5% с каждой покупки и продажи на маркете! Подробности в теме Партнёрская программа
Если Вы не хотите скачивать, Вы всегда можетепосмотретьонлайн, просто нажмите кнопку ниже :

Открыть плеер

Torrent_Bot

Торрент-Бот
Бот форума
4 Окт 2016
124
93
20
Информация о фильме
Название: Рим
Оригинальное название: Rome
Год выхода: 2005-2007
Жанр: Историческая драма, Древний Рим, гладиаторы, боевик
Режиссер: Майкл Эптид, Аллен Коултер, Алан Пол, Стив Шилл, Тимоти Ван Паттен, Алан Тейлор, Джон Мэйбери
В ролях: Кевин МакКидд, Рэй Стивенсон, Полли Уокер, Керри Кондон, Киаран Хайндс, Джеймс Пьюрфой, Йен МакНайс, Линдси Дункан, Лидия Бионди, Тобиаш Мензес, Дэвид Бамбер, Макс Пиркис, Ли Бордман

О фильме:
"Рим" - совместный проект BBC и американской телекомпании HBO. Многосерийная кинолента переносит зрителя в середину I века до нашей эры - в период заката Римской республики. Проконсул и император галльских легионов Гай Юлий Цезарь возвращается в Рим после почти девятилетней войны, полностью подавив восстание галлов. Объявленный вне закона, он вступает в конфронтацию с сенатом и консулом Гнеем Помпеем. Первый сезон сериала "Рим" повествует об этом и последующих событиях времен правления Цезаря вплоть до трагических мартовских ид 44-го года. На фоне кровавых войн, безжалостных интриг и борьбы за власть, прикрываемой словами о возрождении Республики, рассказывается и о нелегкой участи простых людей. Двое ветеранов прославленного 13-го легиона - Луций Ворен и Тит Пуло пытаются вернуться к нормальной гражданской жизни, но мечтам о мире и покое не суждено сбыться. Красочные, яркие сцены, по словам создателей телесериала, отличаются максимальной исторической достоверностью. Дело не только в скрупулезном следовании деталям в создании костюмов и интерьеров. Авторам удалось передать дух эпохи с ее жестокими нравами, батальными сценами, обилием секса. Именно так создатели картины представляют себе последние годы правления Юлия Цезаря.

e93606e0fcffa6c8b52405b2e05cad14.gif454735bf2e7e48999c20d29bc72eb0b6.gif
Страна: США
Студия: HD Vision Studios, British Broadcasting Corporation (BBC), Home Box Office (HBO)
Продолжительность: [S01-02] 22 x ~ 00:53:00
Перевод: НТВ+

Файл
Кодек: Xvid
Качество: HDRip
Видео: ~ 837 kbps, 606x336, 23.976 fps
Звук: RUS: AC3, 48.0 KHz, 2 ch, 128 kbps

Скриншоты
b16775a3d1d58733e7f0cda12631db03.jpeg817702a409bc009592875aefcfbda547.jpeg086c8f3064f31c771454e39512808d9b.jpeg04b5cf15167ab066ef758dd3a01bf944.jpeg3f5f7877b26a7883cdadeb98604a31a3.jpegb16775a3d1d58733e7f0cda12631db03.jpeg817702a409bc009592875aefcfbda547.jpeg086c8f3064f31c771454e39512808d9b.jpeg04b5cf15167ab066ef758dd3a01bf944.jpeg3f5f7877b26a7883cdadeb98604a31a3.jpeg
MediaInfo
General
Complete name : C:Римseason1s01e01_The.Stolen.Eagle.avi
Format : AVI
Format/Info : Audio Video Interleave
File size : 355 MiB
Duration : 50 min 51 s
Overall bit rate : 975 kb/s
Writing application : Lavf54.63.104

Video
ID : 0
Format : xvid
Codec ID : xvid
Duration : 50 min 51 s
Bit rate : 837 kb/s
Width : 608 pixels
Height : 336 pixels
Display aspect ratio : 16:9
Frame rate : 23.976 (24000/1001) FPS
Scan type : Progressive
Bits/(Pixel*Frame) : 0.171
Stream size : 305 MiB (86%)

Audio
ID : 1
Format : AC-3
Format/Info : Audio Coding 3
Codec ID : 2000
Duration : 50 min 51 s
Bit rate mode : Constant
Bit rate : 128 kb/s
Channel(s) : 2 channels
Channel positions : Front: L R
Sampling rate : 44.1 kHz
Frame rate : 28.711 FPS (1536 SPF)
Bit depth : 16 bits
Compression mode : Lossy
Stream size : 46.6 MiB (13%)
Alignment : Aligned on interleaves
Interleave, duration : 35 ms (0.84 video frame)
Service kind : Complete Main
 

Вложения

Ваш e-mail не будет опубликован. Он потребуется для подтверждения Вашего поста.
Оформление текста Нажмите «Ввод», чтобы отправить ответ.

Привет!

Мы группа людей которые решили помочь другим в решении их проблем, а так же пользователям с поиском самых свежих и качественных инфопродуктов. За 4 с небольшим месяца мы создали этот форум на который заходят ежедневно тысячи человек и посещаемость постоянно растёт. Мы создали панель лицензирования для защиты PHP скриптов от воровства и SEO панель для мониторинга наших сайтов и выбора верной стратегии их развития. Мы надеемся что то что мы создали пригодится Вам и возможно Вы поможете нам развиваться и совершенствоваться вместе с Вами.

Статистика форума

Темы
378.666
Сообщения
417.792
Пользователи
49.167
Новый пользователь
greek alphabet

Приложения форума для iOS и Android


У ркн там нет власти ;)
Приватные разговоры
Помощь Пользователи
    Вы не присоединились ни к одной комнате.