За последнюю неделю опубликовано 38 новых материалов.
Инструкция новичку Путеводитель по форуму Прокси для Telegram Показать подсказки , это бомба!

Скачать Решение о ликвидации (2018) BDRemux 1080p от OlLanDGroup | Лицензия бесплатно через торрент

  • Поучаствуй (в качестве покупателя) в любых пяти совместных покупках (кроме завершённых и "Моментальных") и получи группу "Новичок" навсегда -> ссылка на раздел
  • Получай до 480 рублей за каждого приглашенного пользователя!
    представляем Вам очередное расширение партнерской программы, подробности описаны тут -> ссылка
  • 90% материалов доступно к скачиванию после простой регистрации!
    Если же ты хочешь скачивать материалы без требования оставлять отзывы то получи группу "Новичок", 10 способов повышения описаны тут -> ссылка
  • К сожалению количество битых ссылок растет и мы уже не можем их оперативно восстанавливать поэтому просим помощи у каждого нашего пользователя.
    С сегодняшнего дня, за каждую восстановленную ссылку мы заплатим Вам.
    Подробнее тут -> ссылка
  • Перенесем твои заслуги с другого ресурса!
    Мы понимаем как сложно прокачивать аккаунты на форумах, вроде раскачал аккаунт, а тут появляется ресурс в 100 раз круче но тоже с системой прокачки и снова качать аккаунт...
    Предлагаем вам перенести Ваши заслуги на другом подобном ресурсе к нам.
    Подробности описаны тут -> ссылка
  • Вы можете получать по 2.5% с каждой покупки и продажи на маркете! Подробности в теме Партнёрская программа
Если Вы не хотите скачивать, Вы всегда можетепосмотретьонлайн, просто нажмите кнопку ниже :

Открыть плеер

Torrent_Bot

Торрент-Бот
Бот форума
4 Окт 2016
93
155
20

Информация о фильме

Оригинальное название: Решение о ликвидации
Год выпуска: 2018
Жанр:Военный, боевик, драма
Выпущено: Россия, Мосфильм
Режиссер: Александр Аравин
В ролях: Игорь Петренко, Алексей Вертков, Аюб Цингиев, Алексей Шевченков, Дмитрий Парастаев, Иван Шахназаров, Дагун Омаев, Сослан Фидаров, Кирилл Краснов, Шамиль Алханов



О фильме: Особое задание спецгруппы ФСБ - ликвидация одержимого террориста Шамиля Базгаева. Охота продолжается уже долго, но жестокий лидер боевиков раз за разом ускользает. Однако, когда Базгаеву удается заполучить мощное оружие для осуществления своего самого страшного теракта, у оперативников больше нет права на ошибку. Для этих спецов преодоление себя, смертельный риск и подвиг - не что-то сверхъестественное, а каждодневный тяжелый труд. Но, кажется, даже для них эта операция - за пределами возможностей...








Качество: Blu-Ray Remux (1080p)
Видео: MPEG-4 AV, 28999 Кбит/с, 1920x1080, 23.976 кадр/с
Аудио: Русский (AC3, 6 ch, 640 Кбит/с)
Размер: 19.37 ГБ
Продолжительность: 01:36:11
Язык: Русский


Озвучивание - (Лицензия)
Сохранены оригинальные чаптеры как на Blu-Ray.


Инфо-файл
Общее
Уникальный идентификатор : 244961059288802062028622273766081909292 (0xB849C8AF9765D1C8AB5A4A01D80B522C)
Полное имя : D:ЗагрузкиReshenie.O.Likvidacii.2018.BDRemux.(1080p).OlLanDGroup.mkv
Формат : Matroska
Версия формата : Version 4 / Version 2
Размер файла : 19,4 Гбайт
Продолжительность : 1 ч. 36 м.
Режим общего битрейта : Постоянный
Общий поток : 28,8 Мбит/сек
Название фильма : Решение о ликвидации.2018.Сборка: ollan
Дата кодирования : UTC 2018-08-26 10:26:55
Программа кодирования : mkvmerge v6.5.0 ('Isn't she lovely') built on Oct 20 2013 12:50:05
Библиотека кодирования : libebml v1.3.0 + libmatroska v1.4.1
Обложка : Yes
Attachments : Cover - Reshenie.O.Likvidicii.png

Видео
Идентификатор : 1
Формат : AVC
Формат/Информация : Advanced Video Codec
Профиль формата : High@L4.1
Настройки формата : CABAC / 4 Ref Frames
Параметр CABAC формата : Да
Параметр ReFrames формата : 4 кадра
Идентификатор кодека : V_MPEG4/ISO/AVC
Продолжительность : 1 ч. 36 м.
Вид битрейта : Постоянный
Битрейт : 27,6 Мбит/сек
Номинальный битрейт : 29,0 Мбит/сек
Ширина : 1920 пикселей
Высота : 1080 пикселей
Соотношение сторон : 16:9
Режим частоты кадров : Постоянный
Частота кадров : 23,976 (24000/1001) кадра/сек
Стандарт вещания : NTSC
Цветовое пространство : YUV
Субдискретизация насыщенности : 4:2:0
Битовая глубина : 8 бит
Тип развёртки : Прогрессивная
Бит/(Пиксели*Кадры) : 0.555
Размер потока : 18,6 Гбайт (96%)
Язык : Russian
Default : Да
Forced : Нет
Цветовой диапазон : Limited
Основные цвета : BT.709
Характеристики трансфера : BT.709
Коэффициенты матрицы : BT.709

Аудио
Идентификатор : 2
Формат : AC-3
Формат/Информация : Audio Coding 3
Идентификатор кодека : A_AC3
Продолжительность : 1 ч. 36 м.
Вид битрейта : Постоянный
Битрейт : 640 Кбит/сек
Каналы : 6 каналов
Расположение каналов : Front: L C R, Side: L R, LFE
Частота : 48,0 КГц
Частота кадров : 31,250 кадров/сек (1536 SPF)
Битовая глубина : 16 бит
Метод сжатия : С потерями
Размер потока : 440 Мбайт (2%)
Заголовок : Лицензия
Язык : Russian
Service kind : Complete Main
Default : Да
Forced : Нет

Меню
00:00:00.000 : ru:Chapter 01
00:10:03.686 : ru:Chapter 02
00:18:43.539 : ru:Chapter 03
00:27:10.587 : ru:Chapter 04
00:35:30.294 : ru:Chapter 05
00:44:10.356 : ru:Chapter 06
00:53:00.343 : ru:Chapter 07
01:03:31.182 : ru:Chapter 08
01:13:11.345 : ru:Chapter 09
01:22:21.353 : ru:Chapter 10

Скриншоты



Релиз от: Сборка:
 

Вложения

  • 49,4 KB Просмотры: 0
    Личеров 0
    Сидеров 0
    Файлов 1
    Объем 19,4 GB

Привет!

Мы группа людей которые решили помочь другим в решении их проблем, а так же пользователям с поиском самых свежих и качественных инфопродуктов. За 4 с небольшим месяца мы создали этот форум на который заходят ежедневно тысячи человек и посещаемость постоянно растёт. Мы создали панель лицензирования для защиты PHP скриптов от воровства и SEO панель для мониторинга наших сайтов и выбора верной стратегии их развития. Мы надеемся что то что мы создали пригодится Вам и возможно Вы поможете нам развиваться и совершенствоваться вместе с Вами.

Статистика форума

Темы
406.529
Сообщения
464.585
Пользователи
83.073
Новый пользователь
karambakumbaq

Приложения форума для iOS и Android


У ркн там нет власти ;)
Приватные разговоры
Помощь Пользователи
    Вы не присоединились ни к одной комнате.