За последнюю неделю опубликовано 57 новых материалов.
Инструкция новичку Путеводитель по форуму Прокси для Telegram Показать подсказки , это бомба!

Скачать Реинкарнация / Hereditary (2018) BDRemux 1080p от селезень | US Transfer | Лицензия бесплатно через торрент

  • Поучаствуй (в качестве покупателя) в любых пяти совместных покупках (кроме завершённых и "Моментальных") и получи группу "Новичок" навсегда -> ссылка на раздел
  • Получай до 480 рублей за каждого приглашенного пользователя!
    представляем Вам очередное расширение партнерской программы, подробности описаны тут -> ссылка
  • 90% материалов доступно к скачиванию после простой регистрации!
    Если же ты хочешь скачивать материалы без требования оставлять отзывы то получи группу "Новичок", 10 способов повышения описаны тут -> ссылка
  • К сожалению количество битых ссылок растет и мы уже не можем их оперативно восстанавливать поэтому просим помощи у каждого нашего пользователя.
    С сегодняшнего дня, за каждую восстановленную ссылку мы заплатим Вам.
    Подробнее тут -> ссылка
  • Перенесем твои заслуги с другого ресурса!
    Мы понимаем как сложно прокачивать аккаунты на форумах, вроде раскачал аккаунт, а тут появляется ресурс в 100 раз круче но тоже с системой прокачки и снова качать аккаунт...
    Предлагаем вам перенести Ваши заслуги на другом подобном ресурсе к нам.
    Подробности описаны тут -> ссылка
  • Вы можете получать по 2.5% с каждой покупки и продажи на маркете! Подробности в теме Партнёрская программа
Если Вы не хотите скачивать, Вы всегда можетепосмотретьонлайн, просто нажмите кнопку ниже :

Открыть плеер

Torrent_Bot

Торрент-Бот
Бот форума
4 Окт 2016
102
157
20


Информация о фильме
Название: Реинкарнация
Оригинальное название: Hereditary
Год выхода: 2018
Жанр: Ужасы, триллер, драма, детектив
Режиссер: Ари Астер
В ролях: Алекс Вулф, Гэбриел Бирн, Тони Коллетт, Милли Шапиро, Кристи Саммерхэйс, Морган Ланд, Мэллори Бехтель, Джейк Браун, Харрисон Нелл, Брианн Рейчел



О фильме: После смерти матери Энни Грэхем в её ранее спокойном доме начинает твориться нечто необъяснимое. Теперь под угрозой жизнь её близких. С каждым днём открываются новые ужасающие секреты их семьи. Энни осознаёт, что эти кошмары берут своё начало в далёком прошлом. Сможет ли она найти ключ к тайне зловещего проклятия, которое передаётся из поколения в поколение…

Страна: США
Студия: Palm-Star Entertainment
Продолжительность: 02:07:25
Перевод: Дублированный | Лицензия

Качество: BDRemux 1080p
Видео: MPEG-4 AVC, 1920x1080, 34.9 Mbit/s, 23.976 fps
Звук:
Аудио #01: 48 kHz, DTS-HD MA, 5.1, 3801 Kbps | Дублированный | RUS |
Аудио #02: 48 kHz, DTS-HD MA, 5.1, 3375 Kbps | Оригинал | ENG |
Субтитры: Русские (full), английские



MI
General
Unique ID : 118042986554893101140565828666663635519 (0x58CE4093A8B1490F03D6A97435080A3F)
Complete name : D:Video111Hereditary.2018.BDREMUX.1080p.seleZen.mkv
Format : Matroska
Format version : Version 4
File size : 37.4 GiB
Duration : 2 h 7 min
Overall bit rate mode : Variable
Overall bit rate : 42.1 Mb/s
Movie name : Hereditary 2018 from селезень
Encoded date : UTC 2019-06-01 21:57:34
Writing application : mkvmerge v33.1.0 ('Primrose') 64-bit
Writing library : libebml v1.3.7 + libmatroska v1.5.0

Video
ID : 1
Format : AVC
Format/Info : Advanced Video Codec
Format profile : High@L4.1
Format settings : CABAC / 4 Ref Frames
Format settings, CABAC : Yes
Format settings, Reference : 4 frames
Codec ID : V_MPEG4/ISO/AVC
Duration : 2 h 7 min
Bit rate mode : Variable
Bit rate : 34.9 Mb/s
Maximum bit rate : 37.0 Mb/s
Width : 1 920 pixels
Height : 1 080 pixels
Display aspect ratio : 16:9
Frame rate mode : Constant
Frame rate : 23.976 (24000/1001) FPS
Color space : YUV
Chroma subsampling : 4:2:0
Bit depth : 8 bits
Scan type : Progressive
Bits/(Pixel*Frame) : 0.702
Stream size : 31.1 GiB (83%)
Language : English
Default : Yes
Forced : No

Audio #1
ID : 2
Format : DTS XLL
Format/Info : Digital Theater Systems
Commercial name : DTS-HD Master Audio
Codec ID : A_DTS
Duration : 2 h 7 min
Bit rate mode : Variable
Bit rate : 3 801 kb/s
Channel(s) : 6 channels
Channel layout : C L R Ls Rs LFE
Sampling rate : 48.0 kHz
Frame rate : 93.750 FPS (512 SPF)
Bit depth : 24 bits
Compression mode : Lossless
Stream size : 3.38 GiB (9%)
Title : Dub [LIcense]
Language : Russian
Default : Yes
Forced : Yes

Audio #2
ID : 3
Format : DTS XLL
Format/Info : Digital Theater Systems
Commercial name : DTS-HD Master Audio
Codec ID : A_DTS
Duration : 2 h 7 min
Bit rate mode : Variable
Bit rate : 3 375 kb/s
Channel(s) : 6 channels
Channel layout : C L R Ls Rs LFE
Sampling rate : 48.0 kHz
Frame rate : 93.750 FPS (512 SPF)
Bit depth : 24 bits
Compression mode : Lossless
Stream size : 3.00 GiB (8%)
Title : Original
Language : English
Default : No
Forced : No

Text #1
ID : 4
Format : UTF-8
Codec ID : S_TEXT/UTF8
Codec ID/Info : UTF-8 Plain Text
Duration : 2 h 0 min
Bit rate : 56 b/s
Count of elements : 1015
Stream size : 50.0 KiB (0%)
Title : Full
Language : Russian
Default : No
Forced : No

Text #2
ID : 5
Format : UTF-8
Codec ID : S_TEXT/UTF8
Codec ID/Info : UTF-8 Plain Text
Duration : 2 h 0 min
Bit rate : 33 b/s
Count of elements : 1014
Stream size : 29.4 KiB (0%)
Language : English
Default : No
Forced : No

Menu
00:00:00.000 : en:00:00:00.000
00:06:03.321 : en:00:06:03.321
00:13:34.147 : en:00:13:34.147
00:23:01.130 : en:00:23:01.130
00:26:31.173 : en:00:26:31.173
00:34:57.762 : en:00:34:57.762
00:40:56.496 : en:00:40:56.496
00:47:23.090 : en:00:47:23.090
00:54:34.396 : en:00:54:34.396
01:04:02.881 : en:01:04:02.881
01:08:55.631 : en:01:08:55.631
01:19:35.854 : en:01:19:35.854
01:25:09.396 : en:01:25:09.396
01:32:50.315 : en:01:32:50.315
01:40:01.412 : en:01:40:01.412
01:53:21.378 : en:01:53:21.378

Релиз:

 

Вложения

  • 47,8 KB Просмотры: 1
    Личеров 0
    Сидеров 0
    Файлов 1
    Объем 37,4 GB

Привет!

Мы группа людей которые решили помочь другим в решении их проблем, а так же пользователям с поиском самых свежих и качественных инфопродуктов. За 4 с небольшим месяца мы создали этот форум на который заходят ежедневно тысячи человек и посещаемость постоянно растёт. Мы создали панель лицензирования для защиты PHP скриптов от воровства и SEO панель для мониторинга наших сайтов и выбора верной стратегии их развития. Мы надеемся что то что мы создали пригодится Вам и возможно Вы поможете нам развиваться и совершенствоваться вместе с Вами.

Статистика форума

Темы
405.486
Сообщения
462.621
Пользователи
80.729
Новый пользователь
venlio

Приложения форума для iOS и Android


У ркн там нет власти ;)
Приватные разговоры
Помощь Пользователи
    Вы не присоединились ни к одной комнате.