За последнюю неделю опубликовано 57 новых материалов.
Инструкция новичку Путеводитель по форуму Прокси для Telegram Показать подсказки , это бомба!

Скачать Рэйк (2019) WEB-DLRip от ELEKTRI4KA | iTunes бесплатно через торрент

  • Поучаствуй (в качестве покупателя) в любых пяти совместных покупках (кроме завершённых и "Моментальных") и получи группу "Новичок" навсегда -> ссылка на раздел
  • Получай до 480 рублей за каждого приглашенного пользователя!
    представляем Вам очередное расширение партнерской программы, подробности описаны тут -> ссылка
  • 90% материалов доступно к скачиванию после простой регистрации!
    Если же ты хочешь скачивать материалы без требования оставлять отзывы то получи группу "Новичок", 10 способов повышения описаны тут -> ссылка
  • К сожалению количество битых ссылок растет и мы уже не можем их оперативно восстанавливать поэтому просим помощи у каждого нашего пользователя.
    С сегодняшнего дня, за каждую восстановленную ссылку мы заплатим Вам.
    Подробнее тут -> ссылка
  • Перенесем твои заслуги с другого ресурса!
    Мы понимаем как сложно прокачивать аккаунты на форумах, вроде раскачал аккаунт, а тут появляется ресурс в 100 раз круче но тоже с системой прокачки и снова качать аккаунт...
    Предлагаем вам перенести Ваши заслуги на другом подобном ресурсе к нам.
    Подробности описаны тут -> ссылка
  • Вы можете получать по 2.5% с каждой покупки и продажи на маркете! Подробности в теме Партнёрская программа
Если Вы не хотите скачивать, Вы всегда можетепосмотретьонлайн, просто нажмите кнопку ниже :

Открыть плеер

Torrent_Bot

Торрент-Бот
Бот форума
4 Окт 2016
92
163
20

Информация о фильме
Название: Рэйк
Год выхода: 2019
Жанр: драма, криминал
Режиссер: Владимир Мистюков
В ролях: Александр Савельев, Андрей Чадов, Денис Шведов, Карина Хидэкель, Константин Константинов, Мария Фортунатова, Наталья Аветисян

О фильме: Молодой бухгалтер из провинциального поселения страдает от тирании матери и ищет ответ на причины самоубийства отца. Желание поменять направление жизненного русла толкает его на бегство в Москву, где волей судьбы он попадает в жизнь подпольного казино.



Выпущено: Россия
Продолжительность: 01:41:12
Озвучивание: Оригинальное | iTunes

Файл
Формат: AVI
Качество: WEB-DLRip
Видео: XviD, 1856 Kb/s, 720x304
Аудио: Russian: 48 kHz, AC3 Dolby Digital, 2/0 (L, R) ch, ~192 Kbps
Субтитры: Нет

Релиз группы: &

MediaInfo:
Complete name: Reyk.2019.WEB-DLRip.ELEKTRI4KA.UNIONGANG.avi
Format: AVI
Format/Info: Audio Video Interleave
Format profile: OpenDML
File size: 1.46 GiB
Duration: 1 h 41 min
Overall bit rate: 2 059 kb/s
Movie name: .WEB-DL1080p.ELEKTRI4KA.UNIONGANG.
Writing application: Lavf58.20.100

Video
ID: 0
Format: MPEG-4 Visual
Format profile: Advanced [email protected]
Format settings, BVOP: 1
Format settings, QPel: No
Format settings, GMC: No warppoints
Format settings, Matrix: Default (H.263)
Codec ID: XVID
Codec ID/Hint: XviD
Duration: 1 h 41 min
Bit rate: 1 856 kb/s
Width: 720 pixels
Height: 304 pixels
Display aspect ratio: 2.40:1
Frame rate: 24.000 FPS
Color space: YUV
Chroma subsampling: 4:2:0
Bit depth: 8 bits
Scan type: Progressive
Compression mode: Lossy
Bits/(Pixel*Frame): 0.353
Stream size: 1.31 GiB (90%)
Title: .ELEKTRI4KA.UNIONGANG.
Writing library: XviD 67

Audio
ID: 1
Format: AC-3
Format/Info: Audio Coding 3
Mode extension: CM (complete main)
Format settings, Endianness: Big
Codec ID: 2000
Duration: 1 h 41 min
Bit rate mode: Constant
Bit rate: 192 kb/s
Channel(s): 2 channels
Channel positions: Front: L R
Sampling rate: 48.0 kHz
Frame rate: 31.250 FPS (1536 spf)
Bit depth: 16 bits
Compression mode: Lossy
Stream size: 139 MiB (9%)
Alignment: Aligned on interleaves
Interleave, duration: 32 ms (0.77 video frame)
Title: iTunes
Скриншоты
 

Вложения

  • 4,6 KB Просмотры: 0
    Личеров 0
    Сидеров 0
    Файлов 1
    Объем 1,5 GB

Привет!

Мы группа людей которые решили помочь другим в решении их проблем, а так же пользователям с поиском самых свежих и качественных инфопродуктов. За 4 с небольшим месяца мы создали этот форум на который заходят ежедневно тысячи человек и посещаемость постоянно растёт. Мы создали панель лицензирования для защиты PHP скриптов от воровства и SEO панель для мониторинга наших сайтов и выбора верной стратегии их развития. Мы надеемся что то что мы создали пригодится Вам и возможно Вы поможете нам развиваться и совершенствоваться вместе с Вами.

Статистика форума

Темы
406.699
Сообщения
465.162
Пользователи
84.823
Новый пользователь
servet2510

Приложения форума для iOS и Android


У ркн там нет власти ;)
Приватные разговоры
Помощь Пользователи
    Вы не присоединились ни к одной комнате.