За последнюю неделю опубликовано 60 новых материалов.
Инструкция новичку Путеводитель по форуму Прокси для Telegram Показать подсказки , это бомба!

Скачать Реальная сказка (2011) BDRip от ivandubskoj бесплатно через торрент

  • Поучаствуй (в качестве покупателя) в любых пяти совместных покупках (кроме завершённых и "Моментальных") и получи группу "Новичок" навсегда -> ссылка на раздел
  • Получай до 480 рублей за каждого приглашенного пользователя!
    представляем Вам очередное расширение партнерской программы, подробности описаны тут -> ссылка
  • 90% материалов доступно к скачиванию после простой регистрации!
    Если же ты хочешь скачивать материалы без требования оставлять отзывы то получи группу "Новичок", 10 способов повышения описаны тут -> ссылка
  • К сожалению количество битых ссылок растет и мы уже не можем их оперативно восстанавливать поэтому просим помощи у каждого нашего пользователя.
    С сегодняшнего дня, за каждую восстановленную ссылку мы заплатим Вам.
    Подробнее тут -> ссылка
  • Перенесем твои заслуги с другого ресурса!
    Мы понимаем как сложно прокачивать аккаунты на форумах, вроде раскачал аккаунт, а тут появляется ресурс в 100 раз круче но тоже с системой прокачки и снова качать аккаунт...
    Предлагаем вам перенести Ваши заслуги на другом подобном ресурсе к нам.
    Подробности описаны тут -> ссылка
  • Вы можете получать по 2.5% с каждой покупки и продажи на маркете! Подробности в теме Партнёрская программа
Если Вы не хотите скачивать, Вы всегда можетепосмотретьонлайн, просто нажмите кнопку ниже :

Открыть плеер

Torrent_Bot

Торрент-Бот
Бот форума
4 Окт 2016
90
168
20
Информация о фильме
Название: Реальная сказка
Год выхода: 2011
Жанр: Фэнтези, драма, комедия, семейный, сказка
Режиссёр: Андрей Мармонтов
В ролях: Сергей Безруков, Леонид Ярмольник, Максим Шибаев, Анастасия Добрынина, Ирина Безрукова, Георгий Штиль, Людмила Полякова, Анна Герман (мл.), Сергей Погосян, Антон Пампушный

О фильме:
Жили-были сестрица Олесенька и братец Саша. Нет, так не пойдет: кажется, прошла пора старых-добрых сказок. Даже сказочные персонажи, понимая это, переселились в наш мир: Василиса Премудрая стала учительницей, Леший бомжом, Иван-дурак ВДВшником, Кащей олигархом. Злые дела творить он, конечно, не бросил. И главным его злодеянием стало то, что он лишил нас веры в чудо. Люди стали эгоистичными, расчетливыми и прагматичными, что Кащею как бальзам на душу. Только одно не дает ему спокойно спать: благодаря сказкам, каждый ребенок знает, где искать его смерть. И какой же он после этого бессмертный? Кащей идет на крайние меры и безжалостно уничтожает все страницы сказок, где описана его страшная тайна. Маленькая девочка Олеся находит нетронутую старинную книгу сказок и, прочитав ее, вскоре исчезает. Старший брат девочки, школьник Саша, бросается на поиски, рассчитывая на поддержку новых знакомых Ивана-дурака и его жены Василисы, но они, вопреки ожиданиям, не спешат помогать ему в его борьбе с Кащеем. Саша же готов пойти на все, чтобы вернуть сестренку и подарить миру веру в чудо.

76c094fda374943ab0986830127bebf1.gif

Страна: Россия
Студия: Централ Партнершип
Продолжительность: 01:41:57
Перевод: Не требуется

Файл
Кодек: XviD
Качество: BDRip [Исходник: Blu-Ray (1080i)]
Видео: XviD, 640x272 (2.35:1), 886 Кбит/с, 25 кадр/с
Звук: Русский, MP3, 48000 Гц, 128 Кбит/с, 2 канала (Стерео)
Субтитры: Нет

9262eb5b20728555f9ccee1b30a6ac69.png

MediaInfo
General
Complete name : Real'naya.skazka.2011.745MB.avi
Format : AVI
Format/Info : Audio Video Interleave
File size : 747 MiB
Duration : 1h 41mn
Overall bit rate : 1 024 Kbps
Writing application : VirtualDubMod 1.5.10.3 | www.virtualdub-fr.org || (build 2550/release)
Writing library : VirtualDubMod build 2550/release

Video
ID : 0
Format : MPEG-4 Visual
Format profile : Advanced [email protected]
Format settings, BVOP : 2
Format settings, QPel : No
Format settings, GMC : No warppoints
Format settings, Matrix : Custom
Codec ID : XVID
Codec ID/Hint : XviD
Duration : 1h 41mn
Bit rate : 886 Kbps
Width : 640 pixels
Height : 272 pixels
Display aspect ratio : 2.35:1
Frame rate : 25.000 fps
Color space : YUV
Chroma subsampling : 4:2:0
Bit depth : 8 bits
Scan type : Progressive
Compression mode : Lossy
Bits/(Pixel*Frame) : 0.204
Stream size : 646 MiB (87%)
Writing library : XviD 73

Audio
ID : 1
Format : MPEG Audio
Format version : Version 1
Format profile : Layer 3
Codec ID : 55
Codec ID/Hint : MP3
Duration : 1h 41mn
Bit rate mode : Constant
Bit rate : 128 Kbps
Channel(s) : 2 channels
Sampling rate : 48.0 KHz
Compression mode : Lossy
Stream size : 93.4 MiB (13%)
Alignment : Aligned on interleaves
Interleave, duration : 40 ms (1.00 video frame)
Interleave, preload duration : 504 ms
Writing library : LAME3.99r
Encoding settings : -m s -V 4 -q 0 -lowpass 17 -b 128
Скриншоты
40176286544d19e59bd39fd02eb3d8be.jpgf8b14b8646818853aeb36b223480ae27.jpg
4b33614eb2ffe928af861fd46d44d428.jpgf1947cdedc811fac1b270721c4d2690d.jpg
Автор рипа - ivandubskoj
 

Вложения

Привет!

Мы группа людей которые решили помочь другим в решении их проблем, а так же пользователям с поиском самых свежих и качественных инфопродуктов. За 4 с небольшим месяца мы создали этот форум на который заходят ежедневно тысячи человек и посещаемость постоянно растёт. Мы создали панель лицензирования для защиты PHP скриптов от воровства и SEO панель для мониторинга наших сайтов и выбора верной стратегии их развития. Мы надеемся что то что мы создали пригодится Вам и возможно Вы поможете нам развиваться и совершенствоваться вместе с Вами.

Статистика форума

Темы
410.947
Сообщения
469.365
Пользователи
88.325
Новый пользователь
Archikon

Приложения форума для iOS и Android


У ркн там нет власти ;)
Приватные разговоры
Помощь Пользователи
    Вы не присоединились ни к одной комнате.