За последнюю неделю опубликовано 45 новых материалов.
Инструкция новичку Путеводитель по форуму Прокси для Telegram Показать подсказки , это бомба!

Скачать Размножители / Отродье / Breeders (1986) BDRemux 1080p | Р2, L1 бесплатно через торрент

  • Поучаствуй (в качестве покупателя) в любых пяти совместных покупках (кроме завершённых и "Моментальных") и получи группу "Новичок" навсегда -> ссылка на раздел
  • Получай до 480 рублей за каждого приглашенного пользователя!
    представляем Вам очередное расширение партнерской программы, подробности описаны тут -> ссылка
  • 90% материалов доступно к скачиванию после простой регистрации!
    Если же ты хочешь скачивать материалы без требования оставлять отзывы то получи группу "Новичок", 10 способов повышения описаны тут -> ссылка
  • К сожалению количество битых ссылок растет и мы уже не можем их оперативно восстанавливать поэтому просим помощи у каждого нашего пользователя.
    С сегодняшнего дня, за каждую восстановленную ссылку мы заплатим Вам.
    Подробнее тут -> ссылка
  • Перенесем твои заслуги с другого ресурса!
    Мы понимаем как сложно прокачивать аккаунты на форумах, вроде раскачал аккаунт, а тут появляется ресурс в 100 раз круче но тоже с системой прокачки и снова качать аккаунт...
    Предлагаем вам перенести Ваши заслуги на другом подобном ресурсе к нам.
    Подробности описаны тут -> ссылка
  • Вы можете получать по 2.5% с каждой покупки и продажи на маркете! Подробности в теме Партнёрская программа
Если Вы не хотите скачивать, Вы всегда можетепосмотретьонлайн, просто нажмите кнопку ниже :

Открыть плеер

Torrent_Bot

Торрент-Бот
Бот форума
4 Окт 2016
93
156
20

Год выпуска: 1986
Страна: США
Жанр: ужасы, фантастика
Продолжительность: 01:17:08
Перевод 1: Профессиональный (двухголосый закадровый) (НТВ+)
Перевод 2: Одноголосый (закадровый)
Субтитры: отсутствуют
Оригинальная аудиодорожка: английский


Режиссер: Тим Кинкейд / Tim Kincaid


В ролях: Тереза Фарли / Teresa Farley; Лэнс Льюман / Lance Lewman; Франсес Рэйнс / Frances Raines; Натали О'Коннелл / Natalie O'Connell; Эми Брентано / Amy Brentano


Описание:Манхеттен охватывает череда изнасилований. Жертвами сексуального насилия и физических увечий, становятся девственницы. Испытания, выпавшие на долю молодых девушек настолько тяжелы, что даже после реабилитационного периода они с трудом дают показания, по которым, составляется список лиц, якобы совершивших преступления. В каждом случае, злодеями оказываются люди разного возраста, достатка, семейного положения и даже сексуальной ориентации, их объединяет лишь одно - все они являются добропорядочными гражданами. Тем временем анализ улик подходит к концу и результаты в свою очередь сбивают с толку порядком запутавшееся следствие. Из медицинского заключения, становится ясно - все преступления совершены одним лицом, таким образом, становится актуальной версия о появлении маньяка.




Качество: BDRemux 1080p
Формат: MKV
Видео кодек: H.264
Аудио кодек: AC3, FLAC
Видео: 1920 x 1080 / MPEG-4 AVC Video 33677 kbps / 1080p / 23.976 fps / 16:9 / High Profile 4.1
Аудио1: Русский / AC3 / 2.0 / 192 Kbps / 48,0 kHz(NTV+)
Аудио2: Русский / AC3 / 2.0 / 192 Kbps / 48,0 kHz(VO)
Аудио3: English / FLAC / 2.0 / ~784 kbps / 48 kHz (Original)

MediaInfo
Общее
Уникальный идентификатор : 245903093526246202972862955168039631417 (0xB8FF368F4ACCC9CDA754D7951806FA39)
Полное имя : G:Breeders.1986.BDRemux.1080p.2xRus.Eng.mkv
Формат : Matroska
Версия формата : Version 4 / Version 2
Размер файла : 18,8 Гбайт
Продолжительность : 1 ч. 17 м.
Режим общего битрейта : Переменный
Общий поток : 34,8 Мбит/сек
Название фильма : Breeders
Дата кодирования : UTC 2015-10-31 14:58:13
Программа кодирования : mkvmerge v7.3.0 ('Nouages') 32bit built on Oct 22 2014 18:44:01
Библиотека кодирования : libebml v1.3.0 + libmatroska v1.4.1
DURATION : 01:17:09.056000000
NUMBER_OF_FRAMES : 144658
NUMBER_OF_BYTES : 111097344
_STATISTICS_WRITING_APP : mkvmerge v7.3.0 ('Nouages') 32bit built on Oct 22 2014 18:44:01
_STATISTICS_WRITING_DATE_UTC : 2015-10-31 14:58:13
_STATISTICS_TAGS : BPS DURATION NUMBER_OF_FRAMES NUMBER_OF_BYTES

Видео
Идентификатор : 1
Формат : AVC
Формат/Информация : Advanced Video Codec
Профиль формата : [email protected]
Параметр CABAC формата : Да
Параметр ReFrames формата : 4 кадра
Идентификатор кодека : V_MPEG4/ISO/AVC
Продолжительность : 1 ч. 17 м.
Вид битрейта : Постоянный
Номинальный битрейт : 35,0 Мбит/сек
Ширина : 1920 пикселей
Высота : 1080 пикселей
Соотношение сторон : 16:9
Режим частоты кадров : Постоянный
Частота кадров : 23,976 кадра/сек
Цветовое пространство : YUV
Субдискретизация насыщенности : 4:2:0
Битовая глубина : 8 бит
Тип развёртки : Прогрессивная
Бит/(Пиксели*Кадры) : 0.704
Заголовок : Breeders.1986.COMPLETE.BLURAY-GF44
Default : Нет
Forced : Нет

Аудио #1
Идентификатор : 2
Формат : AC-3
Формат/Информация : Audio Coding 3
Расширение режима : CM (complete main)
Параметр Endianness формата : Big
Идентификатор кодека : A_AC3
Продолжительность : 1 ч. 17 м.
Вид битрейта : Постоянный
Битрейт : 192 Кбит/сек
Каналы : 2 канала
Расположение каналов : Front: L R
Частота : 48,0 КГц
Метод сжатия : С потерями
Размер потока : 106 Мбайт (1%)
Заголовок : NTV+ AC3 2.0 192 kbps
Язык : Russian
Default : Нет
Forced : Нет

Аудио #2
Идентификатор : 3
Формат : AC-3
Формат/Информация : Audio Coding 3
Расширение режима : CM (complete main)
Параметр Endianness формата : Big
Идентификатор кодека : A_AC3
Продолжительность : 1 ч. 17 м.
Вид битрейта : Постоянный
Битрейт : 192 Кбит/сек
Каналы : 2 канала
Расположение каналов : Front: L R
Частота : 48,0 КГц
Метод сжатия : С потерями
Размер потока : 106 Мбайт (1%)
Заголовок : VO AC3 2.0 192 kbps
Язык : Russian
Default : Нет
Forced : Нет

Аудио #3
Идентификатор : 4
Формат : FLAC
Формат/Информация : Free Lossless Audio Codec
Идентификатор кодека : A_FLAC
Продолжительность : 1 ч. 17 м.
Вид битрейта : Переменный
Каналы : 2 канала
Частота : 48,0 КГц
Битовая глубина : 24 бит
Заголовок : Original FLAC ~784 kbps
Библиотека кодирования : libFLAC 1.2.1 (UTC 2007-09-17)
Язык : English
Default : Нет
Forced : Нет

Меню
00:00:00.000 : en:00:00:00.000
00:09:36.409 : en:00:09:36.409
00:21:51.769 : en:00:21:51.769
00:28:00.429 : en:00:28:00.429
00:35:17.615 : en:00:35:17.615
00:43:07.335 : en:00:43:07.335
00:51:24.206 : en:00:51:24.206
01:02:40.340 : en:01:02:40.340
Скриншоты
 

Вложения

  • 94,7 KB Просмотры: 2
    Личеров 0
    Сидеров 0
    Файлов 1
    Объем 18,8 GB

Привет!

Мы группа людей которые решили помочь другим в решении их проблем, а так же пользователям с поиском самых свежих и качественных инфопродуктов. За 4 с небольшим месяца мы создали этот форум на который заходят ежедневно тысячи человек и посещаемость постоянно растёт. Мы создали панель лицензирования для защиты PHP скриптов от воровства и SEO панель для мониторинга наших сайтов и выбора верной стратегии их развития. Мы надеемся что то что мы создали пригодится Вам и возможно Вы поможете нам развиваться и совершенствоваться вместе с Вами.

Статистика форума

Темы
406.579
Сообщения
464.793
Пользователи
83.572
Новый пользователь
fdsad

Приложения форума для iOS и Android


У ркн там нет власти ;)
Приватные разговоры
Помощь Пользователи
    Вы не присоединились ни к одной комнате.