За последнюю неделю опубликовано 35 новых материалов.
Инструкция новичку Путеводитель по форуму Прокси для Telegram Показать подсказки , это бомба!

Скачать Разбуди меня (2016) WEB-DL 1080p | iTunes бесплатно через торрент

  • Поучаствуй (в качестве покупателя) в любых пяти совместных покупках (кроме завершённых и "Моментальных") и получи группу "Новичок" навсегда -> ссылка на раздел
  • Получай до 480 рублей за каждого приглашенного пользователя!
    представляем Вам очередное расширение партнерской программы, подробности описаны тут -> ссылка
  • 90% материалов доступно к скачиванию после простой регистрации!
    Если же ты хочешь скачивать материалы без требования оставлять отзывы то получи группу "Новичок", 10 способов повышения описаны тут -> ссылка
  • К сожалению количество битых ссылок растет и мы уже не можем их оперативно восстанавливать поэтому просим помощи у каждого нашего пользователя.
    С сегодняшнего дня, за каждую восстановленную ссылку мы заплатим Вам.
    Подробнее тут -> ссылка
  • Перенесем твои заслуги с другого ресурса!
    Мы понимаем как сложно прокачивать аккаунты на форумах, вроде раскачал аккаунт, а тут появляется ресурс в 100 раз круче но тоже с системой прокачки и снова качать аккаунт...
    Предлагаем вам перенести Ваши заслуги на другом подобном ресурсе к нам.
    Подробности описаны тут -> ссылка
  • Вы можете получать по 2.5% с каждой покупки и продажи на маркете! Подробности в теме Партнёрская программа
Если Вы не хотите скачивать, Вы всегда можетепосмотретьонлайн, просто нажмите кнопку ниже :

Открыть плеер

Torrent_Bot

Торрент-Бот
Бот форума
4 Окт 2016
93
160
20
Информация о фильме
Название: Разбуди меня
Год выхода: 2016
Жанр: триллер, драма

Режиссёр: Гийом Проценко
В ролях: Константин Лавроненко, Кирилл Пирогов, Ирина Вербицкая, Евгений Гришковец, Александра Ребенок, Даниил Воробьев, Елена Морозова, Валерий Гришко, Илья Древнов, Екатерина Волкова

О фильме: Женя работает в службе пограничного контроля столичного аэропорта. Больше года назад при странных обстоятельствах исчез её возлюбленный Андрей. Женя буквально помешалась на собственном прошлом в то время, как ей снится будущее. Сны о коллегах и коррупционных схемах наркотрафика становятся реальностью. Постепенно Женя становится частью окружающего её криминального мира, и сама того не осознавая, играет в нём не последнюю роль. Ей кажется, что, находясь между сном и реальностью, она может изменить будущее. Женя думает, что может обмануть судьбу и спасти свою новую любовь от трагедии, но так ли это на самом деле?



Страна: Россия
Производство: Синетрейн
Продолжительность: 01:35:01
Перевод: Не требуется [iTunes]

Файл
Кодек: AVC
Качество: WEB-DL 1080p
Видео: 1920x1040 (1.85:1), 24 fps, [email protected] ~5 099 kbps avg, 0.106 bit/pixel
Аудио: AC3, 48 kHz, 6 ch, ~384.00 kbps avg
Субтитры: нет MediaInfo
/Razbudi.menya.2017.1080p.WEB-DL.Rus.HDCLUB.mkv
Format : Matroska
Format version : Version 2
File size : 3.71 GiB
Duration : 1 h 35 min
Overall bit rate : 5 594 kb/s
Movie name : Razbudi menya (2017) - Release for HDCLUB
Encoded date : UTC 2017-04-20 18:36:09
Writing application : mkvmerge v3.4.0 ('Rapunzel') built on May 15 2010 09:38:20
Writing library : libebml v0.8.0 + libmatroska v0.9.0

Video
ID : 1
Format : AVC
Format/Info : Advanced Video Codec
Format profile : [email protected]
Format settings, CABAC : Yes
Format settings, ReFrames : 4 frames
Codec ID : V_MPEG4/ISO/AVC
Duration : 1 h 35 min
Bit rate : 5 099 kb/s
Width : 1 920 pixels
Height : 1 040 pixels
Display aspect ratio : 1.85:1
Frame rate mode : Constant
Frame rate : 24.000 FPS
Color space : YUV
Chroma subsampling : 4:2:0
Bit depth : 8 bits
Scan type : Progressive
Bits/(Pixel*Frame) : 0.106
Stream size : 3.38 GiB (91%)
Title : Razbudi menya (2017) - Release for HDCLUB
Language : Russian
Default : Yes
Forced : No
Color range : Limited
Color primaries : BT.709
Transfer characteristics : BT.709
Matrix coefficients : BT.709

Audio
ID : 2
Format : AC-3
Format/Info : Audio Coding 3
Mode extension : CM (complete main)
Format settings, Endianness : Big
Codec ID : A_AC3
Duration : 1 h 35 min
Bit rate mode : Constant
Bit rate : 384 kb/s
Channel(s) : 6 channels
Channel positions : Front: L C R, Side: L R, LFE
Sampling rate : 48.0 kHz
Frame rate : 31.250 FPS (1536 spf)
Bit depth : 16 bits
Compression mode : Lossy
Stream size : 261 MiB (7%)
Title : AC3 5.1 @ 384 kbps
Language : Russian
Default : Yes
Forced : No

Menu
00:00:00.000 : en:1
00:04:44.083 : en:2
00:10:48.083 : en:3
00:16:46.499 : en:4
00:21:22.540 : en:5
00:27:58.123 : en:6
00:33:47.248 : en:7
00:40:23.914 : en:8
00:48:58.039 : en:9
00:54:27.164 : en:10
01:00:45.580 : en:11
01:07:34.621 : en:12
01:14:52.912 : en:13
01:20:26.912 : en:14
01:25:41.662 : en:15
Скриншоты


 

Вложения

  • 19,7 KB Просмотры: 0
    Личеров 0
    Сидеров 0
    Файлов 1
    Объем 3,7 GB

Привет!

Мы группа людей которые решили помочь другим в решении их проблем, а так же пользователям с поиском самых свежих и качественных инфопродуктов. За 4 с небольшим месяца мы создали этот форум на который заходят ежедневно тысячи человек и посещаемость постоянно растёт. Мы создали панель лицензирования для защиты PHP скриптов от воровства и SEO панель для мониторинга наших сайтов и выбора верной стратегии их развития. Мы надеемся что то что мы создали пригодится Вам и возможно Вы поможете нам развиваться и совершенствоваться вместе с Вами.

Статистика форума

Темы
406.602
Сообщения
464.995
Пользователи
84.324
Новый пользователь
sosigeisosigei

Приложения форума для iOS и Android


У ркн там нет власти ;)
Приватные разговоры
Помощь Пользователи
    Вы не присоединились ни к одной комнате.