За последнюю неделю опубликовано 25 новых материалов.
Инструкция новичку Путеводитель по форуму Прокси для Telegram Показать подсказки , это бомба!

Скачать Разборки в стиле Кунг-фу / Kung fu (2004) BDRip 1080p | D, P, P2 бесплатно через торрент

  • Поучаствуй (в качестве покупателя) в любых пяти совместных покупках (кроме завершённых и "Моментальных") и получи группу "Новичок" навсегда -> ссылка на раздел
  • Получай до 480 рублей за каждого приглашенного пользователя!
    представляем Вам очередное расширение партнерской программы, подробности описаны тут -> ссылка
  • 90% материалов доступно к скачиванию после простой регистрации!
    Если же ты хочешь скачивать материалы без требования оставлять отзывы то получи группу "Новичок", 10 способов повышения описаны тут -> ссылка
  • К сожалению количество битых ссылок растет и мы уже не можем их оперативно восстанавливать поэтому просим помощи у каждого нашего пользователя.
    С сегодняшнего дня, за каждую восстановленную ссылку мы заплатим Вам.
    Подробнее тут -> ссылка
  • Перенесем твои заслуги с другого ресурса!
    Мы понимаем как сложно прокачивать аккаунты на форумах, вроде раскачал аккаунт, а тут появляется ресурс в 100 раз круче но тоже с системой прокачки и снова качать аккаунт...
    Предлагаем вам перенести Ваши заслуги на другом подобном ресурсе к нам.
    Подробности описаны тут -> ссылка
  • Вы можете получать по 2.5% с каждой покупки и продажи на маркете! Подробности в теме Партнёрская программа
Если Вы не хотите скачивать, Вы всегда можетепосмотретьонлайн, просто нажмите кнопку ниже :

Открыть плеер

Torrent_Bot

Торрент-Бот
Бот форума
4 Окт 2016
93
156
20
Информация о фильме
Название: Разборки в стиле Кунг-фу
Оригинальное название: Kung fu
Год выхода: 2004
Жанр: Фэнтези, боевик, комедия, криминал
Режиссер: Стивен Чоу
В ролях: Стивен Чоу, Сяоган Фэн, Ва Юэнь, Жи Хуа Донг, Квок-Куен Чан, Лам Чи Чунг, Сю-Люн Люн, Цю Юен, Кай Ман Тинь, Кенг Кси Джиа, Фунг Харк-Он, Шэн И Хуан, Сует Лам, Чеунг-Ян Юэнь, Чи Чи Линг, Син Юй, Чжан Ибай, Си Лу Рен, Сяо Ланг Динг, Минг Минг Чжан, Оливер Вонг, Кай Ши Чен, Уэллсон Чин, Вэнь Хуи Хе, Дэвид Хунг, Билли Ма, Хао Тиан Йуан, Мин Хун Фанг, Нан Ян, Чао Ксиа Лью

О фильме:
30-е годы ХХ века — время господства на улицах Шанхая жестоких правил, установленных бандами, поделившими город на сферы влияния. Группировка, носящая название Топоры, наводит страх на мирных жителей и вдохновляет на подвиги юных подражателей. Однажды один из таких не в меру горячих юношей устраивает настоящий погром в трущобах на окраине города, выдавая себя при этом за одного из Топоров. Это становится причиной для начала войны между настоящими участниками банды и обитателями местных домов, которые в совершенстве владеют приемами кунг-фу…



Страна: Гонконг, Китай
Студия: Beijing Film Studio, China Film Group Corporation, Columbia Pictures Film Production Asia, Huayi Brothers, Star Overseas
Продолжительность: 01:39:26
Перевод: Дублированный, профессиональный многоголосый, профессиональный двухголосый

Файл
Кодек: x.264
Качество: BDRip 1080p
Видео: MPEG-4 AVC, 1920x800, 11.0 Mбит/с, 23.976 кадр/с
Аудио #1: Русский ( АС3, 6ch, 448 Кбит/с, 48.0 KHz) Профессиональный (полное дублирование) R5
Аудио #2: Русский ( АС3, 6ch, 448 Кбит/с, 48.0 KHz) Профессиональный (двухголосый, закадровый) Tycoon
Аудио #3: Русский ( АС3, 6ch, 448 Кбит/с, 48.0 KHz) Профессиональный (многоголосый, закадровый)
Аудио #4: Русский ( АС3, 6ch, 384 Кбит/с, 48.0 KHz) Профессиональный (многоголосый, закадровый)
Аудио #5: Русский ( АС3, 2ch, 192 Кбит/с, 48.0 KHz) Профессиональный (многоголосый, закадровый) ОРТ
Аудио #6: Русский ( АС3, 2ch, 192 Кбит/с, 48.0 KHz) Профессиональный (двухголосый, закадровый) TZ-CREW
Аудио #7: Английский ( АС3, 6ch, 448 Кбит/с, 48.0 KHz)
Аудио #8: Китайский ( АС3, 6ch, 448 Кбит/с, 48.0 KHz)
Субтитры: русские (ass, srt), английские (ass, srt)
MediaInfo
Источник: Kung.Fu.Hustle.2004.INTERNAL.Chinese.1080p.BluRay.x264-CLASSiC
General
Unique ID : 178436832810153207968014658629374237783 (0x863DAF174944B796903188755B3EDC57)
Complete name : Kung.Fu.Hustle.2004.BDRip.1080p.mkv
Format : Matroska
Format version : Version 4 / Version 2
File size : 9.70 GiB
Duration : 1 h 39 min
Overall bit rate : 14.0 Mb/s
Encoded date : UTC 2018-09-14 22:33:30
Writing application : mkvmerge v7.1.0 ('Good Love') 64bit built on Jul 27 2014 13:06:55
Writing library : libebml v1.3.0 + libmatroska v1.4.1

Video
ID : 1
Format : AVC
Format/Info : Advanced Video Codec
Format profile : [email protected]
Format settings : CABAC / 5 Ref Frames
Format settings, CABAC : Yes
Format settings, ReFrames : 5 frames
Codec ID : V_MPEG4/ISO/AVC
Duration : 1 h 39 min
Bit rate : 11.0 Mb/s
Width : 1 920 pixels
Height : 800 pixels
Display aspect ratio : 2.40:1
Frame rate mode : Constant
Frame rate : 23.976 (24000/1001) FPS
Color space : YUV
Chroma subsampling : 4:2:0
Bit depth : 8 bits
Scan type : Progressive
Bits/(Pixel*Frame) : 0.298
Stream size : 7.61 GiB (78%)
Writing library : x264 core 155 r2901 7d0ff22
Encoding settings : cabac=1 / ref=5 / deblock=1:0:0 / analyse=0x3:0x133 / me=tesa / subme=10 / psy=1 / psy_rd=1.00:0.00 / mixed_ref=1 / me_range=24 / chroma_me=1 / trellis=2 / 8x8dct=1 / cqm=0 / deadzone=21,11 / fast_pskip=0 / chroma_qp_offset=-2 / threads=12 / lookahead_threads=2 / sliced_threads=0 / nr=0 / decimate=1 / interlaced=0 / bluray_compat=0 / constrained_intra=0 / bframes=8 / b_pyramid=0 / b_adapt=2 / b_bias=0 / direct=3 / weightb=1 / open_gop=0 / weightp=2 / keyint=240 / keyint_min=24 / scenecut=40 / intra_refresh=0 / rc_lookahead=60 / rc=2pass / mbtree=1 / bitrate=10958 / ratetol=1.0 / qcomp=0.60 / qpmin=0 / qpmax=69 / qpstep=4 / cplxblur=20.0 / qblur=0.5 / vbv_maxrate=78125 / vbv_bufsize=62500 / nal_hrd=none / filler=0 / ip_ratio=1.40 / aq=1:1.00
Language : Chinese
Default : Yes
Forced : No
Color range : Limited
Color primaries : BT.709
Transfer characteristics : BT.709
Matrix coefficients : BT.709

Audio #1
ID : 2
Format : AC-3
Format/Info : Audio Coding 3
Commercial name : Dolby Digital
Codec ID : A_AC3
Duration : 1 h 39 min
Bit rate mode : Constant
Bit rate : 448 kb/s
Channel(s) : 6 channels
Channel layout : L R C LFE Ls Rs
Sampling rate : 48.0 kHz
Frame rate : 31.250 FPS (1536 SPF)
Bit depth : 16 bits
Compression mode : Lossy
Stream size : 319 MiB (3%)
Title : Dub AC3 5.1ch 448kbps
Language : Russian
Service kind : Complete Main
Default : Yes
Forced : No

Audio #2
ID : 3
Format : AC-3
Format/Info : Audio Coding 3
Commercial name : Dolby Digital
Codec ID : A_AC3
Duration : 1 h 39 min
Bit rate mode : Constant
Bit rate : 448 kb/s
Channel(s) : 6 channels
Channel layout : L R C LFE Ls Rs
Sampling rate : 48.0 kHz
Frame rate : 31.250 FPS (1536 SPF)
Bit depth : 16 bits
Compression mode : Lossy
Stream size : 319 MiB (3%)
Title : MVO AC3 5.1ch 448kbps (Tycoon)
Language : Russian
Service kind : Complete Main
Default : No
Forced : No

Audio #3
ID : 4
Format : AC-3
Format/Info : Audio Coding 3
Commercial name : Dolby Digital
Codec ID : A_AC3
Duration : 1 h 39 min
Bit rate mode : Constant
Bit rate : 448 kb/s
Channel(s) : 6 channels
Channel layout : L R C LFE Ls Rs
Sampling rate : 48.0 kHz
Frame rate : 31.250 FPS (1536 SPF)
Bit depth : 16 bits
Compression mode : Lossy
Stream size : 319 MiB (3%)
Title : MVO AC3 5.1ch 448kbps
Language : Russian
Service kind : Complete Main
Default : No
Forced : No

Audio #4
ID : 5
Format : AC-3
Format/Info : Audio Coding 3
Commercial name : Dolby Digital
Codec ID : A_AC3
Duration : 1 h 39 min
Bit rate mode : Constant
Bit rate : 384 kb/s
Channel(s) : 6 channels
Channel layout : L R C LFE Ls Rs
Sampling rate : 48.0 kHz
Frame rate : 31.250 FPS (1536 SPF)
Bit depth : 16 bits
Compression mode : Lossy
Stream size : 273 MiB (3%)
Title : MVO AC3 5.1ch 384kbps
Language : Russian
Service kind : Complete Main
Default : No
Forced : No

Audio #5
ID : 6
Format : AC-3
Format/Info : Audio Coding 3
Commercial name : Dolby Digital
Codec ID : A_AC3
Duration : 1 h 39 min
Bit rate mode : Constant
Bit rate : 192 kb/s
Channel(s) : 2 channels
Channel layout : L R
Sampling rate : 48.0 kHz
Frame rate : 31.250 FPS (1536 SPF)
Bit depth : 16 bits
Compression mode : Lossy
Stream size : 137 MiB (1%)
Title : MVO AC3 2.0ch 192kbps (ОРТ)
Language : Russian
Service kind : Complete Main
Default : No
Forced : No

Audio #6
ID : 7
Format : AC-3
Format/Info : Audio Coding 3
Commercial name : Dolby Digital
Codec ID : A_AC3
Duration : 1 h 39 min
Bit rate mode : Constant
Bit rate : 192 kb/s
Channel(s) : 2 channels
Channel layout : L R
Sampling rate : 48.0 kHz
Frame rate : 31.250 FPS (1536 SPF)
Bit depth : 16 bits
Compression mode : Lossy
Stream size : 137 MiB (1%)
Title : MVO AC3 2.0ch 192kbps (TZ-Crew)
Language : Russian
Service kind : Complete Main
Default : No
Forced : No

Audio #7
ID : 8
Format : AC-3
Format/Info : Audio Coding 3
Commercial name : Dolby Digital
Codec ID : A_AC3
Duration : 1 h 39 min
Bit rate mode : Constant
Bit rate : 448 kb/s
Channel(s) : 6 channels
Channel layout : L R C LFE Ls Rs
Sampling rate : 48.0 kHz
Frame rate : 31.250 FPS (1536 SPF)
Bit depth : 16 bits
Compression mode : Lossy
Stream size : 319 MiB (3%)
Language : English
Service kind : Complete Main
Default : No
Forced : No

Audio #8
ID : 9
Format : AC-3
Format/Info : Audio Coding 3
Commercial name : Dolby Digital
Codec ID : A_AC3
Duration : 1 h 39 min
Bit rate mode : Constant
Bit rate : 448 kb/s
Channel(s) : 6 channels
Channel layout : L R C LFE Ls Rs
Sampling rate : 48.0 kHz
Frame rate : 31.250 FPS (1536 SPF)
Bit depth : 16 bits
Compression mode : Lossy
Stream size : 319 MiB (3%)
Language : Chinese
Service kind : Complete Main
Default : No
Forced : No

Text #1
ID : 10
Format : ASS
Codec ID : S_TEXT/ASS
Codec ID/Info : Advanced Sub Station Alpha
Duration : 1 h 35 min
Bit rate : 82 b/s
Count of elements : 660
Compression mode : Lossless
Stream size : 57.9 KiB (0%)
Title : по дубляжу
Language : Russian
Default : No
Forced : No

Text #2
ID : 11
Format : UTF-8
Codec ID : S_TEXT/UTF8
Codec ID/Info : UTF-8 Plain Text
Duration : 1 h 33 min
Bit rate : 49 b/s
Count of elements : 607
Stream size : 34.2 KiB (0%)
Title : по ОРТ
Language : Russian
Default : No
Forced : No

Text #3
ID : 12
Format : UTF-8
Codec ID : S_TEXT/UTF8
Codec ID/Info : UTF-8 Plain Text
Duration : 1 h 33 min
Bit rate : 49 b/s
Count of elements : 608
Stream size : 33.6 KiB (0%)
Language : Russian
Default : No
Forced : No

Text #4
ID : 13
Format : ASS
Codec ID : S_TEXT/ASS
Codec ID/Info : Advanced Sub Station Alpha
Duration : 1 h 33 min
Bit rate : 56 b/s
Count of elements : 609
Compression mode : Lossless
Stream size : 38.9 KiB (0%)
Language : English
Default : No
Forced : No

Text #5
ID : 14
Format : UTF-8
Codec ID : S_TEXT/UTF8
Codec ID/Info : UTF-8 Plain Text
Duration : 1 h 33 min
Bit rate : 25 b/s
Count of elements : 609
Stream size : 17.6 KiB (0%)
Language : English
Default : No
Forced : No

Menu
00:00:00.000 : en:01.Start
00:03:03.973 : en:02.The Axe Gang
00:07:12.624 : en:03.Pig Sty Alley
00:12:30.627 : en:04.Sing
00:16:50.769 : en:05."Call For Help!"
00:21:29.153 : en:06.Three Heroes
00:24:47.863 : en:07.Sing's Special Skill
00:25:35.464 : en:08.To the Rescue
00:33:35.933 : en:09.Just One Kill
00:36:48.067 : en:10.Quick Healer
00:39:10.771 : en:11.Assassins
00:42:37.313 : en:12.One Down
00:43:39.843 : en:13.Super Tailor
00:49:11.849 : en:14.Evened Odds
00:51:27.849 : en:15.The Lion's Roar
00:52:29.182 : en:16.A Warning for Brother Sum
00:54:15.104 : en:17.A Broken Promise
00:56:25.302 : en:18.Mute Memory
01:02:05.793 : en:19.Deep in the Asylum
01:05:19.752 : en:20.The Beast
01:09:01.764 : en:21.Paris & Helen of Troy
01:14:07.568 : en:22.Amplification
01:15:37.235 : en:23.Sing's True Character
01:20:24.457 : en:24.Chrysalis
01:21:37.849 : en:25.His Kung Fu is Strong
01:25:44.707 : en:26.Sing vs. the Beast
01:29:16.963 : en:27.The Buddhist Palm
01:34:29.640 : en:28.New Starts & Lollipops
Скриншоты
 

Вложения

  • 25,2 KB Просмотры: 1
    Личеров 0
    Сидеров 0
    Файлов 1
    Объем 9,7 GB

Привет!

Мы группа людей которые решили помочь другим в решении их проблем, а так же пользователям с поиском самых свежих и качественных инфопродуктов. За 4 с небольшим месяца мы создали этот форум на который заходят ежедневно тысячи человек и посещаемость постоянно растёт. Мы создали панель лицензирования для защиты PHP скриптов от воровства и SEO панель для мониторинга наших сайтов и выбора верной стратегии их развития. Мы надеемся что то что мы создали пригодится Вам и возможно Вы поможете нам развиваться и совершенствоваться вместе с Вами.

Статистика форума

Темы
406.549
Сообщения
464.713
Пользователи
83.428
Новый пользователь
Лилия231

Приложения форума для iOS и Android


У ркн там нет власти ;)
Приватные разговоры
Помощь Пользователи
    Вы не присоединились ни к одной комнате.