За последнюю неделю опубликовано 73 новых материалов.
Инструкция новичку Путеводитель по форуму Прокси для Telegram Показать подсказки , это бомба!

Скачать Рассказ / The Tale (2018) BDRip 1080p | P бесплатно через торрент

  • Поучаствуй (в качестве покупателя) в любых пяти совместных покупках (кроме завершённых и "Моментальных") и получи группу "Новичок" навсегда -> ссылка на раздел
  • Получай до 480 рублей за каждого приглашенного пользователя!
    представляем Вам очередное расширение партнерской программы, подробности описаны тут -> ссылка
  • 90% материалов доступно к скачиванию после простой регистрации!
    Если же ты хочешь скачивать материалы без требования оставлять отзывы то получи группу "Новичок", 10 способов повышения описаны тут -> ссылка
  • К сожалению количество битых ссылок растет и мы уже не можем их оперативно восстанавливать поэтому просим помощи у каждого нашего пользователя.
    С сегодняшнего дня, за каждую восстановленную ссылку мы заплатим Вам.
    Подробнее тут -> ссылка
  • Перенесем твои заслуги с другого ресурса!
    Мы понимаем как сложно прокачивать аккаунты на форумах, вроде раскачал аккаунт, а тут появляется ресурс в 100 раз круче но тоже с системой прокачки и снова качать аккаунт...
    Предлагаем вам перенести Ваши заслуги на другом подобном ресурсе к нам.
    Подробности описаны тут -> ссылка
  • Вы можете получать по 2.5% с каждой покупки и продажи на маркете! Подробности в теме Партнёрская программа
Если Вы не хотите скачивать, Вы всегда можетепосмотретьонлайн, просто нажмите кнопку ниже :

Открыть плеер

Torrent_Bot

Торрент-Бот
Бот форума
4 Окт 2016
102
157
20



Информация о фильме
Название: Рассказ
Оригинальное название: The Tale
Год выхода: 2018
Жанр: Триллер, драма, детектив
Режиссер: Дженнифер Фокс
В ролях: Элизабет Дебики, Лора Дерн, Джон Хёрд, Джейсон Риттер, Эллен Бёрстин, Фрэнсис Конрой, Коммон, Лора Аллен, Челси Элден, Изабелла Амара

О фильме:
Мать успешной журналистки Дженнифер находит её ранний рассказ — исповедь 13-летней девочки о своей связи с двумя взрослыми тренерами. Несоответствия между найденными записями и собственными воспоминаниями побуждают Дженнифер разыскать своих давних любовников. Одновременно ей предстоит встреча со своим 13-летним двойником, который разрушит все представления Дженнифер о самой себе.



Страна: США, Германия
Студия: Gamechanger Films, A Luminous Mind Production, Blackbird Films
Продолжительность: 01:54:41
Перевод: Профессиональный многоголосый | Cтудия "Кравец-Рекордз"

Файл
Кодек: x.264
Качество: BDRip 1080p | The.Tale.2018.LiMiTED.1080p.BluRay.x264-VETO
Видео: MPEG-4 AVC, 8036 Kбит/с, 1920x1040, 24.000 кадр/с
Звук: ► Без Рекламы!
Аудио #1: Русский (АС3, 6ch, 384 Кбит/с, 48.0 KHz) Профессиональный (многоголосый, закадровый) Cтудия "Кравец-Рекордз"
Аудио #2: Английский (DTS, 6ch, 1509Кбит/с, 48.0 KHz)
Субтитры: Английскиe (Full, SDH)
Трейлер
MediaInfo
Источник: The.Tale.2018.LiMiTED.1080p.BluRay.x264-VETO
General
Unique ID : 223818749892048338328581029521951580043 (0xA861EC5A530D70F792578CBBCB505F8B)
Complete name : The.Tale.2018.BDRip.1080p.mkv
Format : Matroska
Format version : Version 4
File size : 7.95 GiB
Duration : 1 h 54 min
Overall bit rate : 9 927 kb/s
Encoded date : UTC 2019-06-16 20:15:53
Writing application : mkvmerge v7.1.0 ('Good Love') 64bit built on Jul 27 2014 13:06:55
Writing library : libebml v1.3.0 + libmatroska v1.4.1

Video
ID : 1
Format : AVC
Format/Info : Advanced Video Codec
Format profile : High@L4.1
Format settings : CABAC / 4 Ref Frames
Format settings, CABAC : Yes
Format settings, Reference fra : 4 frames
Codec ID : V_MPEG4/ISO/AVC
Duration : 1 h 54 min
Bit rate : 8 036 kb/s
Width : 1 920 pixels
Height : 1 040 pixels
Display aspect ratio : 1.85:1
Frame rate mode : Constant
Frame rate : 24.000 FPS
Color space : YUV
Chroma subsampling : 4:2:0
Bit depth : 8 bits
Scan type : Progressive
Bits/(Pixel*Frame) : 0.168
Stream size : 6.43 GiB (81%)
Writing library : x264 core 157 r2969 d4099dd
Encoding settings : cabac=1 / ref=4 / deblock=1:-1:-1 / analyse=0x3:0x133 / me=umh / subme=8 / psy=1 / psy_rd=1.00:0.15 / mixed_ref=1 / me_range=16 / chroma_me=1 / trellis=1 / 8x8dct=1 / cqm=0 / deadzone=21,11 / fast_pskip=0 / chroma_qp_offset=-4 / threads=24 / lookahead_threads=4 / sliced_threads=0 / nr=0 / decimate=1 / interlaced=0 / bluray_compat=0 / constrained_intra=0 / bframes=3 / b_pyramid=2 / b_adapt=2 / b_bias=0 / direct=3 / weightb=1 / open_gop=0 / weightp=2 / keyint=240 / keyint_min=23 / scenecut=40 / intra_refresh=0 / rc_lookahead=50 / rc=2pass / mbtree=1 / bitrate=8036 / ratetol=1.0 / qcomp=0.60 / qpmin=10 / qpmax=69 / qpstep=4 / cplxblur=20.0 / qblur=0.5 / ip_ratio=1.40 / aq=1:1.00
Language : English
Default : Yes
Forced : No

Audio #1
ID : 2
Format : AC-3
Format/Info : Audio Coding 3
Commercial name : Dolby Digital
Codec ID : A_AC3
Duration : 1 h 54 min
Bit rate mode : Constant
Bit rate : 384 kb/s
Channel(s) : 6 channels
Channel layout : L R C LFE Ls Rs
Sampling rate : 48.0 kHz
Frame rate : 31.250 FPS (1536 SPF)
Bit depth : 16 bits
Compression mode : Lossy
Stream size : 315 MiB (4%)
Title : MVO | Кравец-Рекордз
Language : Russian
Service kind : Complete Main
Default : Yes
Forced : No

Audio #2
ID : 3
Format : DTS
Format/Info : Digital Theater Systems
Codec ID : A_DTS
Duration : 1 h 54 min
Bit rate mode : Constant
Bit rate : 1 509 kb/s
Channel(s) : 6 channels
Channel layout : C L R Ls Rs LFE
Sampling rate : 48.0 kHz
Frame rate : 93.750 FPS (512 SPF)
Bit depth : 24 bits
Compression mode : Lossy
Stream size : 1.21 GiB (15%)
Language : English
Default : No
Forced : No

Text #1
ID : 4
Format : UTF-8
Codec ID : S_TEXT/UTF8
Codec ID/Info : UTF-8 Plain Text
Duration : 1 h 53 min
Bit rate : 67 b/s
Count of elements : 1936
Stream size : 56.1 KiB (0%)
Language : English
Default : No
Forced : No

Text #2
ID : 5
Format : UTF-8
Codec ID : S_TEXT/UTF8
Codec ID/Info : UTF-8 Plain Text
Duration : 1 h 53 min
Bit rate : 70 b/s
Count of elements : 2074
Stream size : 59.2 KiB (0%)
Title : SDH
Language : English
Default : No
Forced : No

Menu
00:00:00.000 : en:00:00:00.000
00:02:34.458 : en:00:02:34.458
00:05:52.542 : en:00:05:52.542
00:10:49.500 : en:00:10:49.500
00:20:02.458 : en:00:20:02.458
00:27:22.042 : en:00:27:22.042
00:35:30.750 : en:00:35:30.750
00:42:35.292 : en:00:42:35.292
00:49:01.750 : en:00:49:01.750
00:56:43.958 : en:00:56:43.958
01:02:18.917 : en:01:02:18.917
01:08:50.792 : en:01:08:50.792
01:19:56.583 : en:01:19:56.583
01:23:05.292 : en:01:23:05.292
01:27:37.333 : en:01:27:37.333
01:32:53.167 : en:01:32:53.167
01:40:33.583 : en:01:40:33.583
01:48:43.250 : en:01:48:43.250
Скриншоты
 

Вложения

  • 20,8 KB Просмотры: 1
    Личеров 0
    Сидеров 0
    Файлов 1
    Объем 8 GB

Привет!

Мы группа людей которые решили помочь другим в решении их проблем, а так же пользователям с поиском самых свежих и качественных инфопродуктов. За 4 с небольшим месяца мы создали этот форум на который заходят ежедневно тысячи человек и посещаемость постоянно растёт. Мы создали панель лицензирования для защиты PHP скриптов от воровства и SEO панель для мониторинга наших сайтов и выбора верной стратегии их развития. Мы надеемся что то что мы создали пригодится Вам и возможно Вы поможете нам развиваться и совершенствоваться вместе с Вами.

Статистика форума

Темы
405.465
Сообщения
462.508
Пользователи
80.566
Новый пользователь
Rezere1

Приложения форума для iOS и Android


У ркн там нет власти ;)
Приватные разговоры
Помощь Пользователи
    Вы не присоединились ни к одной комнате.