За последнюю неделю опубликовано 34 новых материалов.
Инструкция новичку Путеводитель по форуму Прокси для Telegram Показать подсказки , это бомба!

Скачать Раскрашенные лица / Семь везунчиков / Painted Faces / Qi xiao fu (1988) BDRip 720p от HDReactor | L1 бесплатно через торрент

  • Поучаствуй (в качестве покупателя) в любых пяти совместных покупках (кроме завершённых и "Моментальных") и получи группу "Новичок" навсегда -> ссылка на раздел
  • Получай до 480 рублей за каждого приглашенного пользователя!
    представляем Вам очередное расширение партнерской программы, подробности описаны тут -> ссылка
  • 90% материалов доступно к скачиванию после простой регистрации!
    Если же ты хочешь скачивать материалы без требования оставлять отзывы то получи группу "Новичок", 10 способов повышения описаны тут -> ссылка
  • К сожалению количество битых ссылок растет и мы уже не можем их оперативно восстанавливать поэтому просим помощи у каждого нашего пользователя.
    С сегодняшнего дня, за каждую восстановленную ссылку мы заплатим Вам.
    Подробнее тут -> ссылка
  • Перенесем твои заслуги с другого ресурса!
    Мы понимаем как сложно прокачивать аккаунты на форумах, вроде раскачал аккаунт, а тут появляется ресурс в 100 раз круче но тоже с системой прокачки и снова качать аккаунт...
    Предлагаем вам перенести Ваши заслуги на другом подобном ресурсе к нам.
    Подробности описаны тут -> ссылка
  • Вы можете получать по 2.5% с каждой покупки и продажи на маркете! Подробности в теме Партнёрская программа
Если Вы не хотите скачивать, Вы всегда можетепосмотретьонлайн, просто нажмите кнопку ниже :

Открыть плеер

Torrent_Bot

Торрент-Бот
Бот форума
4 Окт 2016
96
155
20
Информация о фильме
Название: Раскрашенные лица / Семь везунчиков
Оригинальное название: Painted Faces / Qi xiao fu
Год выхода: 1988
Жанр: Драма, биография
Режиссер: Алекс Ло
В ролях: Саммо Хунг Кам-Бо, Пеи-пеи Ченг, Чинг-Йинг Лам, Джеки Чан, Пак-Квон Хо, Рики Хо, Ку Хуи, Джон Шам, Ма У, Юэнь Бяо, Кори Юэнь

О фильме: Этот фильм о законах, мастере Ю Джим Юэне и студентах Школы Китайской Оперы, которая наиболее известна как место учебы Джеки Чана, Саммо Хунга и Юэнь Бьяо.



Страна: Гонконг / Golden Harvest Company Ltd., Shaw Brothers
Продолжительность: 01:52:26
Перевод: Любительский одноголосый (kosmos87)
Субтитры: Английские

Файл
Качество: BDRip (720p)
Видео: MPEG-4 AVC, 6755 Кбит/с, 1280x720, 24.000 кадр/с
Аудио #1: Русский (AC3, 2 ch, 192 Кбит/с) | Любительский одноголосый (kosmos87)
Аудио #2: Китайский (AC3, 2 ch, 192 Кбит/с) | мандаринский диалект
Аудио #3: Китайский (AC3, 2 ch, 192 Кбит/с) | кантонский диалект


Скриншоты


МедиаИнфо
Формат : Matroska
Версия формата : Version 2
Размер файла : 5,76 Гбайт
Продолжительность : 1 ч. 52 м.
Общий поток : 7332 Кбит/сек
Название фильма : ~V ad~
Дата кодирования : UTC 2018-09-12 23:11:12
Программа кодирования : mkvmerge v6.5.0 ('Isn't she lovely') built on Oct 20 2013 12:50:05
Библиотека кодирования : libebml v1.3.0 + libmatroska v1.4.1
Обложка : Yes
Attachments : cover.jpg

Видео
Идентификатор : 1
Формат : AVC
Формат/Информация : Advanced Video Codec
Профиль формата : [email protected]
Настройки формата : CABAC / 9 Ref Frames
Параметр CABAC формата : Да
Параметр RefFrames формата : 9 кадров
Идентификатор кодека : V_MPEG4/ISO/AVC
Продолжительность : 1 ч. 52 м.
Битрейт : 6755 Кбит/сек
Ширина : 1280 пикселей
Высота : 720 пикселей
Соотношение сторон : 16:9
Режим частоты кадров : Постоянный
Частота кадров : 24,000 кадра/сек
Цветовое пространство : YUV
Субдискретизация насыщенности : 4:2:0
Битовая глубина : 8 бит
Тип развёртки : Прогрессивная
Бит/(Пиксели*Кадры) : 0.305
Размер потока : 5,19 Гбайт (90%)
Заголовок : ~V~
Библиотека кодирования : x264 core 157 r2932 303c484
Настройки программы : cabac=1 / ref=9 / deblock=1:-3:-2 / analyse=0x3:0x133 / me=umh / subme=11 / psy=1 / psy_rd=1.30:0.15 / mixed_ref=1 / me_range=32 / chroma_me=1 / trellis=2 / 8x8dct=1 / cqm=0 / deadzone=21,11 / fast_pskip=0 / chroma_qp_offset=-3 / threads=12 / lookahead_threads=1 / sliced_threads=0 / nr=0 / decimate=0 / interlaced=0 / bluray_compat=0 / constrained_intra=0 / bframes=9 / b_pyramid=2 / b_adapt=2 / b_bias=0 / direct=3 / weightb=1 / open_gop=0 / weightp=2 / keyint=240 / keyint_min=24 / scenecut=40 / intra_refresh=0 / rc=2pass / mbtree=0 / bitrate=6755 / ratetol=1.0 / qcomp=0.67 / qpmin=0 / qpmax=69 / qpstep=4 / cplxblur=20.0 / qblur=0.5 / ip_ratio=1.30 / pb_ratio=1.30 / aq=3:0.90
Язык : Английский
Default : Да
Forced : Нет

Аудио #1
Идентификатор : 2
Формат : AC-3
Формат/Информация : Audio Coding 3
Коммерческое название : Dolby Digital
Идентификатор кодека : A_AC3
Продолжительность : 1 ч. 52 м.
Вид битрейта : Постоянный
Битрейт : 192 Кбит/сек
Каналы : 2 канала
Channel layout : L R
Частота : 48,0 КГц
Частота кадров : 31,250 кадров/сек (1536 SPF)
Битовая глубина : 16 бит
Метод сжатия : С потерями
Размер потока : 154 Мбайт (3%)
Заголовок : VO[kosmos87]
Язык : Русский
Service Kind : Complete Main
Default : Да
Forced : Да

Аудио #2
Идентификатор : 3
Формат : AC-3
Формат/Информация : Audio Coding 3
Коммерческое название : Dolby Digital
Идентификатор кодека : A_AC3
Продолжительность : 1 ч. 52 м.
Вид битрейта : Постоянный
Битрейт : 192 Кбит/сек
Каналы : 2 канала
Channel layout : L R
Частота : 48,0 КГц
Частота кадров : 31,250 кадров/сек (1536 SPF)
Битовая глубина : 16 бит
Метод сжатия : С потерями
Размер потока : 154 Мбайт (3%)
Заголовок : Mandarin
Язык : Китайский
Service Kind : Complete Main
Default : Нет
Forced : Нет

Аудио #3
Идентификатор : 4
Формат : AC-3
Формат/Информация : Audio Coding 3
Коммерческое название : Dolby Digital
Идентификатор кодека : A_AC3
Продолжительность : 1 ч. 52 м.
Вид битрейта : Постоянный
Битрейт : 192 Кбит/сек
Каналы : 2 канала
Channel layout : L R
Частота : 48,0 КГц
Частота кадров : 31,250 кадров/сек (1536 SPF)
Битовая глубина : 16 бит
Метод сжатия : С потерями
Размер потока : 154 Мбайт (3%)
Заголовок : Cantonese
Язык : Китайский
Service Kind : Complete Main
Default : Нет
Forced : Нет

Текст
Идентификатор : 5
Формат : UTF-8
Идентификатор кодека : S_TEXT/UTF8
Идентификатор кодека/Информация : UTF-8 Plain Text
Язык : Английский
Default : Нет
Forced : Нет

Меню
00:00:00.000 : en:Chapter 01
00:12:33.458 : en:Chapter 02
00:20:57.541 : en:Chapter 03
00:28:39.000 : en:Chapter 04
00:38:15.791 : en:Chapter 05
00:47:55.083 : en:Chapter 06
00:57:54.625 : en:Chapter 07
01:04:45.833 : en:Chapter 08
01:14:07.208 : en:Chapter 09
01:25:35.583 : en:Chapter 10
01:31:13.958 : en:Chapter 11
01:45:51.583 : en:Chapter 12
Интересно
Фильм имеет ряд неточностей и ошибок по сравнению с реальными событиями:
* Джеки Чана в школу Пекинской оперы на самом деле привел отец, а не мать, как в фильме. Мало того, в реальности мать Джеки Чана сначала была против зачисления сына в школу, наслышавшись о «жестоких» методах Мастера Ю.
* В фильме Джеки Чан начинает учиться в школе Пекинской оперы в возрасте 9 лет, в реальной жизни — в 6 лет.
* В школе всем ученикам давали новые имена, производные от имени учителя и содержащие его последний слог. Джеки Чана тогда звали Юэнь Ло, Саммо Хуна — Юэнь Лунг. Мальчику по имени Ся Линчжэн дали имя Юэнь Бяо, которое он впоследствии единственный из «трёх братьев» оставил в качестве творческого псевдонима. В фильме ученикам не выдают новых имен, хотя сам мастер Ю иногда обращается к ним по прозвищам, например «Носатый» («англ. BigNose») или Саммо. Стоит также заметить, что своё прозвище Саммо Хун получил не в оперной школе, а когда уже стал работать на кинокомпании Golden Harvest.
* В фильме Саммо в какой-то момент не выдерживает побоев от своего учителя и сбегает из школы, но через несколько дней, узнав что школу скоро закроют, возвращается обратно. Джеки Чан в своей автобиографической книге "Я - Джеки Чан" писал, что на самом деле из школы сбежал ученик по имени Юэнь Тин, который выполнял обязанности Старшего Брата. Назад в школу Юэнь Тин не вернулся и его дальнейшую судьбу никто не знает. После этого обязанности Старшего Брата перешли Юэнь Луну, то есть будущему Саммо Хуну. Саммо Хун впоследствии ушёл из школы после того как получил сильную травму ноги.

Награды:

35-й Азиатско-тихоокеанский кинофестиваль, 1988 год
Приз за лучшую мужскую роль — Саммо Хун

27-й Тайбэйский кинофестиваль Golden Horse, 1988 год
Приз за лучший художественный фильм
Приз за лучший сценарий — Алекс Ло, Мэйбл Чён
Приз за лучшую операторскую работу — Дэвид Чун
Приз за лучший монтаж - Ю Тунь, Кхуон Чилён
Приз за лучшую музыку к фильму - Лоуэлл Ло
Приз за лучшие звуковые эффекты - Shaw Bros. Recording Studio, Golden Studios Ltd.
Номинация в категории «Лучшая мужская роль» (Саммо Хун)
Номинация в категории «Лучшая мужская роль второго плана» (Лам Чинъин)

25-й Международный кинофестиваль в Чикаго, 1989 год
«Серебряный Хьюго» за лучший дебютный художественный фильм

8-я церемония награждения Hong Kong Film Awards, 1989 год
Приз за лучшую мужскую роль — Саммо Хун
Приз за лучшую операторскую работу — Дэвид Чун
Номинация в категории «Лучший фильм» (Леонард Хо, Мона Фон)
Номинация в категории «Лучшая режиссура» (Алекс Ло)
Номинация в категории «Лучший сценарий» (Алекс Ло, Мэйбл Чён)
Номинация в категории «Лучшая арт-режиссура» (Янк Вон)
Номинация в категории «Лучшая музыка к фильму» (Лоуэлл Ло)
Номинация в категории «Лучший монтаж» (Ю Тунь, Кхуон Чилён)
Сэмпл
Релиз от:
 

Вложения

  • 15,8 KB Просмотры: 1
    Личеров 0
    Сидеров 0
    Файлов 1
    Объем 5,8 GB

Привет!

Мы группа людей которые решили помочь другим в решении их проблем, а так же пользователям с поиском самых свежих и качественных инфопродуктов. За 4 с небольшим месяца мы создали этот форум на который заходят ежедневно тысячи человек и посещаемость постоянно растёт. Мы создали панель лицензирования для защиты PHP скриптов от воровства и SEO панель для мониторинга наших сайтов и выбора верной стратегии их развития. Мы надеемся что то что мы создали пригодится Вам и возможно Вы поможете нам развиваться и совершенствоваться вместе с Вами.

Статистика форума

Темы
406.508
Сообщения
464.521
Пользователи
82.792
Новый пользователь
dimaermolaev

Приложения форума для iOS и Android


У ркн там нет власти ;)
Приватные разговоры
Помощь Пользователи
    Вы не присоединились ни к одной комнате.