За последнюю неделю опубликовано 49 новых материалов.
Инструкция новичку Путеводитель по форуму Прокси для Telegram Показать подсказки , это бомба!

Скачать Расчленитель / Колобос / Kolobos (1999) BDRip 720p | P, A бесплатно через торрент

  • Поучаствуй (в качестве покупателя) в любых пяти совместных покупках (кроме завершённых и "Моментальных") и получи группу "Новичок" навсегда -> ссылка на раздел
  • Получай до 480 рублей за каждого приглашенного пользователя!
    представляем Вам очередное расширение партнерской программы, подробности описаны тут -> ссылка
  • 90% материалов доступно к скачиванию после простой регистрации!
    Если же ты хочешь скачивать материалы без требования оставлять отзывы то получи группу "Новичок", 10 способов повышения описаны тут -> ссылка
  • К сожалению количество битых ссылок растет и мы уже не можем их оперативно восстанавливать поэтому просим помощи у каждого нашего пользователя.
    С сегодняшнего дня, за каждую восстановленную ссылку мы заплатим Вам.
    Подробнее тут -> ссылка
  • Перенесем твои заслуги с другого ресурса!
    Мы понимаем как сложно прокачивать аккаунты на форумах, вроде раскачал аккаунт, а тут появляется ресурс в 100 раз круче но тоже с системой прокачки и снова качать аккаунт...
    Предлагаем вам перенести Ваши заслуги на другом подобном ресурсе к нам.
    Подробности описаны тут -> ссылка
  • Вы можете получать по 2.5% с каждой покупки и продажи на маркете! Подробности в теме Партнёрская программа
Если Вы не хотите скачивать, Вы всегда можетепосмотретьонлайн, просто нажмите кнопку ниже :

Открыть плеер

Torrent_Bot

Торрент-Бот
Бот форума
4 Окт 2016
93
160
20



Информация о фильме
Название: Расчленитель / Колобос
Оригинальное название: Kolobos
Год выхода: 1999
Жанр: ужасы, триллер, детектив
Режиссер: Даниэль Лиатович, Дэвид Тодд Освирк
В ролях: Эми Уэбер, Донни Терранова, Николь Пелерин, Джон Фэйрли, Илья Волох (в роли Безликого), Промис ЛаМарко, Симс Томас, Тодд Бидл, Мари Уайсс, Джонатан Роун и др.

О фильме: Художница Кайра получила заманчивое предложение: принять участие в съемках экспериментального фильма. Для этого она вместе с четырьмя молодыми людьми — Томом, Эрикой, Гэри и Тиной должна провести три месяца в курортном домике в горах с бесплатным проживанием и едой.

Кайра разрешает новым друзьям посмотреть свои мрачные и гнетущие рисунки, но ничего не рассказывает им об источнике вдохновения — «человеке без лица», преследующем ее во сне. Но когда наступает ночь, их дом «сам собой» наглухо запирается изнутри и, превратившись в смертельную ловушку, отрезает Кайре и ее товарищам путь к спасению.

Один за другим они становятся жертвами «человека без лица», убивающего их самыми разнообразными и изощренными способами…



Страна: США
Продолжительность: 01:27:13
Перевод 1: профессиональный (двухголосый закадровый) Екатеринбург Арт
Перевод 2: любительский (одноголосый закадровый) Иван Сафронов (*Jonathan*)
Субтитры: русские и английские (Full, SDH)
Оригинальная аудиодорожка: английский

Файл
Качество: BDRip 720p
Видео: 1280x696p (16:9), 23.976 fps, 5 665 kb/s, 0.265 bit/pixel
Аудио 1: русский / AC3 / 5.1 / 48 kHz / 448 kbps / 16 bits | Екатеринбург Арт
Аудио 2: русский / AC3 / 2.0 / 48 kHz / 192 kbps / 16 bits | Иван Сафронов
Аудио 3: английский / DTS / 5.1 / 48 kHz / 1510 kbps / 24 bits | English

Скриншоты
MediaInfo
C:UsersALEXDesktopHDDKolobos.1999.BDRip.720p.2xRus.Eng.Subs.mkv
General
Unique ID : 235459034280909822160412472930600145845 (0xB123C2AECE0B5430A5BA51B04D22D3B5)
Complete name : C:UsersALEXDesktopHDDKolobos.1999.BDRip.720p.2xRus.Eng.Subs.mkv
Format : Matroska
Format version : Version 4 / Version 2
File size : 4.76 GiB
Duration : 1h 27mn
Overall bit rate : 7 811 Kbps
Movie name : Kolobos.1999.720p
Encoded date : UTC 2019-07-03 16:42:48
Writing application : mkvmerge v8.5.2 ('Crosses') 64bit
Writing library : libebml v1.3.3 + libmatroska v1.4.4
DURATION : 01:25:47.303000000
NUMBER_OF_FRAMES : 1083
NUMBER_OF_BYTES : 37793
_STATISTICS_WRITING_APP : mkvmerge v8.5.2 ('Crosses') 64bit
_STATISTICS_WRITING_DATE_UTC : 2019-07-03 16:42:48
_STATISTICS_TAGS : BPS DURATION NUMBER_OF_FRAMES NUMBER_OF_BYTES

Video #1
ID : 1
Format : AVC
Format/Info : Advanced Video Codec
Format profile : [email protected]
Format settings, CABAC : Yes
Format settings, ReFrames : 9 frames
Codec ID : V_MPEG4/ISO/AVC
Duration : 1h 27mn
Bit rate : 5 665 Kbps
Width : 1 280 pixels
Height : 696 pixels
Display aspect ratio : 16:9
Frame rate : 23.976 fps
Color space : YUV
Chroma subsampling : 4:2:0
Bit depth : 8 bits
Scan type : Progressive
Bits/(Pixel*Frame) : 0.265
Stream size : 3.35 GiB (70%)
Title : Kolobos.1999.720p
Writing library : x264 core 157 r2969 d4099dd
Encoding settings : cabac=1 / ref=9 / deblock=1:-3:-3 / analyse=0x3:0x133 / me=umh / subme=9 / psy=1 / psy_rd=1.00:0.00 / mixed_ref=1 / me_range=24 / chroma_me=1 / trellis=1 / 8x8dct=1 / cqm=0 / deadzone=21,11 / fast_pskip=0 / chroma_qp_offset=-2 / threads=22 / lookahead_threads=3 / sliced_threads=0 / nr=0 / decimate=1 / interlaced=0 / bluray_compat=0 / constrained_intra=0 / bframes=8 / b_pyramid=2 / b_adapt=2 / b_bias=0 / direct=3 / weightb=1 / open_gop=0 / weightp=2 / keyint=250 / keyint_min=23 / scenecut=40 / intra_refresh=0 / rc_lookahead=60 / rc=2pass / mbtree=1 / bitrate=5665 / ratetol=1.0 / qcomp=0.60 / qpmin=0 / qpmax=69 / qpstep=4 / cplxblur=20.0 / qblur=0.5 / vbv_maxrate=62500 / vbv_bufsize=78125 / nal_hrd=none / filler=0 / ip_ratio=1.40 / aq=1:1.00
Language : English

Audio #2
ID : 2
Format : AC-3
Format/Info : Audio Coding 3
Mode extension : CM (complete main)
Codec ID : A_AC3
Duration : 1h 27mn
Bit rate mode : Constant
Bit rate : 448 Kbps
Channel(s) : 6 channels
Channel positions : Front: L C R, Side: L R, LFE
Sampling rate : 48.0 KHz
Bit depth : 16 bits
Compression mode : Lossy
Stream size : 279 MiB (6%)
Title : DVO (Екатеринбург Арт)
Language : Russian

Audio #3
ID : 3
Format : AC-3
Format/Info : Audio Coding 3
Mode extension : CM (complete main)
Codec ID : A_AC3
Duration : 1h 27mn
Bit rate mode : Constant
Bit rate : 192 Kbps
Channel(s) : 2 channels
Channel positions : Front: L R
Sampling rate : 48.0 KHz
Bit depth : 16 bits
Compression mode : Lossy
Stream size : 120 MiB (2%)
Title : VO (Иван Сафронов - Jonathan)
Language : Russian

Audio #4
ID : 4
Format : DTS
Format/Info : Digital Theater Systems
Codec ID : A_DTS
Duration : 1h 27mn
Bit rate mode : Constant
Bit rate : 1 510 Kbps
Channel(s) : 6 channels
Channel positions : Front: L C R, Side: L R, LFE
Sampling rate : 48.0 KHz
Bit depth : 24 bits
Compression mode : Lossy
Stream size : 942 MiB (19%)
Title : Original
Language : English

Text #5
ID : 5
Format : UTF-8
Codec ID : S_TEXT/UTF8
Codec ID/Info : UTF-8 Plain Text
Title : Full
Language : Russian

Text #6
ID : 6
Format : UTF-8
Codec ID : S_TEXT/UTF8
Codec ID/Info : UTF-8 Plain Text
Title : Full
Language : English

Text #7
ID : 7
Format : UTF-8
Codec ID : S_TEXT/UTF8
Codec ID/Info : UTF-8 Plain Text
Title : SDH
Language : English
 

Вложения

  • 12,9 KB Просмотры: 1
    Личеров 0
    Сидеров 0
    Файлов 1
    Объем 4,8 GB

Привет!

Мы группа людей которые решили помочь другим в решении их проблем, а так же пользователям с поиском самых свежих и качественных инфопродуктов. За 4 с небольшим месяца мы создали этот форум на который заходят ежедневно тысячи человек и посещаемость постоянно растёт. Мы создали панель лицензирования для защиты PHP скриптов от воровства и SEO панель для мониторинга наших сайтов и выбора верной стратегии их развития. Мы надеемся что то что мы создали пригодится Вам и возможно Вы поможете нам развиваться и совершенствоваться вместе с Вами.

Статистика форума

Темы
406.639
Сообщения
465.110
Пользователи
84.553
Новый пользователь
usqav

Приложения форума для iOS и Android


У ркн там нет власти ;)
Приватные разговоры
Помощь Пользователи
    Вы не присоединились ни к одной комнате.