За последнюю неделю опубликовано 40 новых материалов.
Инструкция новичку Путеводитель по форуму Прокси для Telegram Показать подсказки , это бомба!

Скачать Рай (2016) WEB-DLRip-AVC от ExKinoRay | iTunes бесплатно через торрент

  • Поучаствуй (в качестве покупателя) в любых пяти совместных покупках (кроме завершённых и "Моментальных") и получи группу "Новичок" навсегда -> ссылка на раздел
  • Получай до 480 рублей за каждого приглашенного пользователя!
    представляем Вам очередное расширение партнерской программы, подробности описаны тут -> ссылка
  • 90% материалов доступно к скачиванию после простой регистрации!
    Если же ты хочешь скачивать материалы без требования оставлять отзывы то получи группу "Новичок", 10 способов повышения описаны тут -> ссылка
  • К сожалению количество битых ссылок растет и мы уже не можем их оперативно восстанавливать поэтому просим помощи у каждого нашего пользователя.
    С сегодняшнего дня, за каждую восстановленную ссылку мы заплатим Вам.
    Подробнее тут -> ссылка
  • Перенесем твои заслуги с другого ресурса!
    Мы понимаем как сложно прокачивать аккаунты на форумах, вроде раскачал аккаунт, а тут появляется ресурс в 100 раз круче но тоже с системой прокачки и снова качать аккаунт...
    Предлагаем вам перенести Ваши заслуги на другом подобном ресурсе к нам.
    Подробности описаны тут -> ссылка
  • Вы можете получать по 2.5% с каждой покупки и продажи на маркете! Подробности в теме Партнёрская программа
Если Вы не хотите скачивать, Вы всегда можетепосмотретьонлайн, просто нажмите кнопку ниже :

Открыть плеер

Torrent_Bot

Торрент-Бот
Бот форума
4 Окт 2016
90
168
20






Информация о фильме
Оригинальное название: Рай
Год выпуска: 2016
Жанр:Драма, история
Режиссер: Андрей Кончаловский
В ролях: Юлия Высоцкая, Петер Курт, Виктор Сухоруков, Филипп Дюкен, Жан Денис Рёмер, Георг Ленц, Рамона Либноу, Ирина Журавкина, Кристиан Клаус, Якоб Диль


О фильме:Ольга, русская аристократка, эмигрантка и участница французского Сопротивления, во время неожиданной проверки арестована нацистами за то, что прячет еврейских детей. В тюрьме ею увлекается Жюль, француз-коллаборационист, который ведет ее дело и в обмен на интимные отношения, кажется, готов смягчить ее участь. Ольга готова на все, чтобы избежать пыток, но ее надежда на свободу быстро рассеивается, так как события принимают неожиданный поворот.

Ольгу отправляют в концентрационный лагерь, где ее жизнь становится адом. Там неожиданно для себя она встречает Хельмута, высокопоставленного немецкого офицера СС, который когда-то был безнадежно влюблён в нее и до сих пор ее любит. Между ними завязываются странные, болезненные отношения. Хельмут решает бежать с Ольгой, хотя она уже перестала надеяться на спасение. Однако постепенно представление Ольги о Рае неотвратимо меняется.





Страна: Россия, Германия
Производство: DRIFE Productions, Продюсерский центр Андрея Кончаловского
Продолжительность: 02:06:17
Язык: Русский


Файл
Качество: WEB-DLRip (AVC)
Видео: MPEG-4 AVC, 1580 Кбит/с, 768x576
Аудио: AC3, 2 ch, 384 Кбит/с



MI
General
Unique ID : 205530517971120016823082134664672036630 (0x9A9FBCE750DC1E498DF1CFF69401C716)
Complete name : D:Ray.2016.O.WEB-DLRip.AVC.ExKinoRay.mkv
Format : Matroska
Format version : Version 4 / Version 2
File size : 1.72 GiB
Duration : 2 h 6 min
Overall bit rate : 1 950 kb/s
Movie name : Paradise 2016 from ExKinoRay
Encoded date : UTC 2017-03-02 03:39:04
Writing application : mkvmerge v7.6.0 ('Garden of Dreams') 32bit built on Feb 11 2015 00:18:47
Writing library : libebml v1.3.1 + libmatroska v1.4.2

Video
ID : 1
Format : AVC
Format/Info : Advanced Video Codec
Format profile : [email protected]
Format settings, CABAC : Yes
Format settings, ReFrames : 11 frames
Codec ID : V_MPEG4/ISO/AVC
Duration : 2 h 6 min
Bit rate : 1 580 kb/s
Width : 768 pixels
Height : 576 pixels
Display aspect ratio : 4:3
Frame rate mode : Constant
Frame rate : 25.000 FPS
Color space : YUV
Chroma subsampling : 4:2:0
Bit depth : 8 bits
Scan type : Progressive
Bits/(Pixel*Frame) : 0.143
Stream size : 1.38 GiB (80%)
Title : Enigma
Writing library : x264 core 144 r2525 40bb568
Encoding settings : cabac=1 / ref=11 / deblock=1:-2:-2 / analyse=0x3:0x113 / me=umh / subme=10 / psy=1 / psy_rd=1.00:0.05 / mixed_ref=1 / me_range=32 / chroma_me=1 / trellis=2 / 8x8dct=1 / cqm=0 / deadzone=21,11 / fast_pskip=1 / chroma_qp_offset=-3 / threads=12 / lookahead_threads=3 / sliced_threads=0 / nr=0 / decimate=1 / interlaced=0 / bluray_compat=0 / constrained_intra=0 / bframes=10 / b_pyramid=2 / b_adapt=2 / b_bias=0 / direct=3 / weightb=1 / open_gop=0 / weightp=2 / keyint=250 / keyint_min=25 / scenecut=40 / intra_refresh=0 / rc_lookahead=40 / rc=2pass / mbtree=0 / bitrate=1580 / ratetol=1.0 / qcomp=0.60 / qpmin=0 / qpmax=51 / qpstep=4 / cplxblur=20.0 / qblur=0.5 / vbv_maxrate=50000 / vbv_bufsize=62500 / nal_hrd=none / filler=0 / ip_ratio=1.40 / pb_ratio=1.30 / aq=1:1.00
Language : English
Default : Yes
Forced : No
Color range : Limited
Color primaries : BT.709
Transfer characteristics : BT.709
Matrix coefficients : BT.709

Audio
ID : 2
Format : AC-3
Format/Info : Audio Coding 3
Mode extension : CM (complete main)
Format settings, Endianness : Big
Codec ID : A_AC3
Duration : 2 h 6 min
Bit rate mode : Constant
Bit rate : 384 kb/s
Channel(s) : 2 channels
Channel positions : Front: L R
Sampling rate : 48.0 kHz
Frame rate : 31.250 FPS (1536 spf)
Bit depth : 16 bits
Compression mode : Lossy
Stream size : 347 MiB (20%)
Language : Russian
Default : Yes
Forced : No

Menu
00:00:00.000 : en:Глава 1
00:05:48.440 : en:Глава 2
00:09:55.280 : en:Глава 3
00:15:42.240 : en:Глава 4
00:20:52.200 : en:Глава 5
00:26:29.160 : en:Глава 6
00:33:52.040 : en:Глава 7
00:42:07.920 : en:Глава 8
00:47:58.680 : en:Глава 9
00:54:37.200 : en:Глава 10
01:03:50.880 : en:Глава 11
01:10:34.480 : en:Глава 12
01:16:17.800 : en:Глава 13
01:23:39.920 : en:Глава 14
01:30:34.080 : en:Глава 15
01:37:59.360 : en:Глава 16
01:43:36.640 : en:Глава 17
01:50:02.920 : en:Глава 18
01:54:59.400 : en:Глава 18

Скриншоты



Релиз от:

Автор релиза:
 

Вложения

  • 18,2 KB Просмотры: 1
    Личеров 0
    Сидеров 0
    Файлов 1
    Объем 1,7 GB

Привет!

Мы группа людей которые решили помочь другим в решении их проблем, а так же пользователям с поиском самых свежих и качественных инфопродуктов. За 4 с небольшим месяца мы создали этот форум на который заходят ежедневно тысячи человек и посещаемость постоянно растёт. Мы создали панель лицензирования для защиты PHP скриптов от воровства и SEO панель для мониторинга наших сайтов и выбора верной стратегии их развития. Мы надеемся что то что мы создали пригодится Вам и возможно Вы поможете нам развиваться и совершенствоваться вместе с Вами.

Статистика форума

Темы
410.968
Сообщения
469.425
Пользователи
88.508
Новый пользователь
bimbimbom

Приложения форума для iOS и Android


У ркн там нет власти ;)
Приватные разговоры
Помощь Пользователи
    Вы не присоединились ни к одной комнате.