За последнюю неделю опубликовано 50 новых материалов.
Инструкция новичку Путеводитель по форуму Прокси для Telegram Показать подсказки , это бомба!

Скачать Пустота / The Void (2016) BDRemux 1080p | P, A, L1 бесплатно через торрент

  • Поучаствуй (в качестве покупателя) в любых пяти совместных покупках (кроме завершённых и "Моментальных") и получи группу "Новичок" навсегда -> ссылка на раздел
  • Получай до 480 рублей за каждого приглашенного пользователя!
    представляем Вам очередное расширение партнерской программы, подробности описаны тут -> ссылка
  • 90% материалов доступно к скачиванию после простой регистрации!
    Если же ты хочешь скачивать материалы без требования оставлять отзывы то получи группу "Новичок", 10 способов повышения описаны тут -> ссылка
  • К сожалению количество битых ссылок растет и мы уже не можем их оперативно восстанавливать поэтому просим помощи у каждого нашего пользователя.
    С сегодняшнего дня, за каждую восстановленную ссылку мы заплатим Вам.
    Подробнее тут -> ссылка
  • Перенесем твои заслуги с другого ресурса!
    Мы понимаем как сложно прокачивать аккаунты на форумах, вроде раскачал аккаунт, а тут появляется ресурс в 100 раз круче но тоже с системой прокачки и снова качать аккаунт...
    Предлагаем вам перенести Ваши заслуги на другом подобном ресурсе к нам.
    Подробности описаны тут -> ссылка
  • Вы можете получать по 2.5% с каждой покупки и продажи на маркете! Подробности в теме Партнёрская программа
Если Вы не хотите скачивать, Вы всегда можетепосмотретьонлайн, просто нажмите кнопку ниже :

Открыть плеер

Torrent_Bot

Торрент-Бот
Бот форума
4 Окт 2016
93
160
20


Информация о фильме
Название: Пустота
Оригинальное название: The Void
Год выхода: 2016
Жанр: Ужасы, фантастика, детектив
Режиссер: Джереми Гиллеспи, Стивен Костански
В ролях: Аарон Пу, Кэтлин Манро, Кеннет Уэлш, Дэниэл Фазерс, Эллен Вонг, Мик Бисков, Арт Хиндл, Стефани Белдинг, Джеймс Миллингтон, Ивэн Штерн, Грэйс Манро, Мэттью Кеннеди, Триш Рейнон, Дэвид Скотт, Трой Джеймс

О фильме:
Во время ночного патрулирования офицер полиции Дениел Картер находит раненого мужчину и доставляет его в больницу. Чтобы допросить пострадавшего, нужно ждать, когда тот придёт в себя, поэтому полицейский остается в больнице на ночь. А ночью начинает твориться сущее непотребство — медсестра срезает себе кожу с лица и убивает одного из больных, а здание больницы окружают люди в белых одеждах.




Страна: Канада, США, Великобритания
Студия: Cave Painting Pictures, JoBro Productions & Film Finance
Продолжительность: 01:30:36
Перевод: Профессиональный многоголосый, авторский, любительский одноголосый

Файл
Кодек: AVC
Качество: BDRemux 1080p
Видео: MPEG-4 AVC, 22.9 Mбит/с, 1920x1080, 23.976 кадр/с
Аудио #1: Русский (АС3, 2 ch, 384 Кбит/с, 48.0 KHz) Профессиональный (многоголосый, закадровый) ViruseProject
Аудио #2: Русский (DTS-HD MA, 6 ch, 1723 Кбит/с, 48.0 KHz) Aвторский (одноголосый, закадровый) Вартан Дохалов
Аудио #3: Русский (DTS-HD MA, 6 ch, 1704 Кбит/с, 48.0 KHz) Любительский (одноголосый, закадровый) Хихидок
Аудио #4: Английский (DTS-HD MA, 6 ch, 1692 Кбит/с, 48.0 KHz)
Субтитры: Русские (Full, (Viruseproject), английские, испанские, немецкие, итальянские
► Без Рекламы!
MediaInfo
Источник: BluRay.REMUX.1080p
General
Unique ID : 213787351331545445330726354137354287108 (0xA0D5F237F075192385D39CA68E2B3804)
Complete name : The.Void.2016.BluRay.REMUX.1080p
Format : Matroska
Format version : Version 4
File size : 18.0 GiB
Duration : 1 h 30 min
Overall bit rate mode : Variable
Overall bit rate : 28.4 Mb/s
Encoded date : UTC 2020-08-15 09:19:05
Writing application : mkvmerge v7.1.0 ('Good Love') 64bit built on Jul 27 2014 13:06:55
Writing library : libebml v1.3.0 + libmatroska v1.4.1

Video
ID : 1
Format : AVC
Format/Info : Advanced Video Codec
Format profile : [email protected]
Format settings : CABAC / 4 Ref Frames
Format settings, CABAC : Yes
Format settings, Reference fra : 4 frames
Codec ID : V_MPEG4/ISO/AVC
Duration : 1 h 30 min
Bit rate mode : Constant
Bit rate : 22.9 Mb/s
Nominal bit rate : 25.0 Mb/s
Width : 1 920 pixels
Height : 1 080 pixels
Display aspect ratio : 16:9
Frame rate mode : Constant
Frame rate : 23.976 (24000/1001) FPS
Standard : NTSC
Color space : YUV
Chroma subsampling : 4:2:0
Bit depth : 8 bits
Scan type : Progressive
Bits/(Pixel*Frame) : 0.461
Stream size : 14.5 GiB (81%)
Language : English
Default : Yes
Forced : No
Color range : Limited
Color primaries : BT.709
Transfer characteristics : BT.709
Matrix coefficients : BT.709

Audio #1
ID : 2
Format : AC-3
Format/Info : Audio Coding 3
Commercial name : Dolby Digital
Codec ID : A_AC3
Duration : 1 h 30 min
Bit rate mode : Constant
Bit rate : 384 kb/s
Channel(s) : 2 channels
Channel layout : L R
Sampling rate : 48.0 kHz
Frame rate : 31.250 FPS (1536 SPF)
Compression mode : Lossy
Stream size : 249 MiB (1%)
Title : MVO | ViruseProject
Language : Russian
Service kind : Complete Main
Default : Yes
Forced : No

Audio #2
ID : 3
Format : DTS XLL
Format/Info : Digital Theater Systems
Commercial name : DTS-HD Master Audio
Codec ID : A_DTS
Duration : 1 h 30 min
Bit rate mode : Variable
Bit rate : 1 723 kb/s
Channel(s) : 6 channels
Channel layout : C L R Ls Rs LFE
Sampling rate : 48.0 kHz
Frame rate : 93.750 FPS (512 SPF)
Bit depth : 16 bits
Compression mode : Lossless
Stream size : 1.09 GiB (6%)
Title : AVO | Вартан Дохалов
Language : Russian
Default : No
Forced : No

Audio #3
ID : 4
Format : DTS XLL
Format/Info : Digital Theater Systems
Commercial name : DTS-HD Master Audio
Codec ID : A_DTS
Duration : 1 h 30 min
Bit rate mode : Variable
Bit rate : 1 704 kb/s
Channel(s) : 6 channels
Channel layout : C L R Ls Rs LFE
Sampling rate : 48.0 kHz
Frame rate : 93.750 FPS (512 SPF)
Bit depth : 16 bits
Compression mode : Lossless
Stream size : 1.08 GiB (6%)
Title : VO | Хихикающий доктор
Language : Russian
Default : No
Forced : No

Audio #4
ID : 5
Format : DTS XLL
Format/Info : Digital Theater Systems
Commercial name : DTS-HD Master Audio
Codec ID : A_DTS
Duration : 1 h 30 min
Bit rate mode : Variable
Bit rate : 1 692 kb/s
Channel(s) : 6 channels
Channel layout : C L R Ls Rs LFE
Sampling rate : 48.0 kHz
Frame rate : 93.750 FPS (512 SPF)
Bit depth : 16 bits
Compression mode : Lossless
Stream size : 1.07 GiB (6%)
Title : Original
Language : English
Default : No
Forced : No

Text #1
ID : 6
Format : UTF-8
Codec ID : S_TEXT/UTF8
Codec ID/Info : UTF-8 Plain Text
Duration : 1 h 24 min
Bit rate : 79 b/s
Count of elements : 809
Stream size : 49.2 KiB (0%)
Title : Viruseproject
Language : Russian
Default : No
Forced : No

Text #2
ID : 7
Format : UTF-8
Codec ID : S_TEXT/UTF8
Codec ID/Info : UTF-8 Plain Text
Duration : 1 h 20 min
Bit rate : 45 b/s
Count of elements : 781
Stream size : 27.2 KiB (0%)
Language : English
Default : No
Forced : No

Text #3
ID : 8
Format : UTF-8
Codec ID : S_TEXT/UTF8
Codec ID/Info : UTF-8 Plain Text
Duration : 1 h 24 min
Bit rate : 49 b/s
Count of elements : 968
Stream size : 30.5 KiB (0%)
Title : SDH
Language : English
Default : No
Forced : No

Text #4
ID : 9
Format : UTF-8
Codec ID : S_TEXT/UTF8
Codec ID/Info : UTF-8 Plain Text
Duration : 1 h 20 min
Bit rate : 41 b/s
Count of elements : 810
Stream size : 24.8 KiB (0%)
Language : German
Default : No
Forced : No

Text #5
ID : 10
Format : UTF-8
Codec ID : S_TEXT/UTF8
Codec ID/Info : UTF-8 Plain Text
Duration : 1 h 20 min
Bit rate : 48 b/s
Count of elements : 982
Stream size : 28.5 KiB (0%)
Language : Spanish
Default : No
Forced : No

Text #6
ID : 11
Format : UTF-8
Codec ID : S_TEXT/UTF8
Codec ID/Info : UTF-8 Plain Text
Duration : 1 h 20 min
Bit rate : 45 b/s
Count of elements : 1056
Stream size : 27.1 KiB (0%)
Language : Italian
Default : No
Forced : No

Menu
00:00:00.000 : en:Chapter 1
00:09:48.588 : en:Chapter 2
00:18:48.127 : en:Chapter 3
00:30:34.833 : en:Chapter 4
00:39:58.396 : en:Chapter 5
00:50:08.005 : en:Chapter 6
00:59:54.591 : en:Chapter 7
01:09:01.137 : en:Chapter 8
01:20:42.838 : en:Chapter 9
01:24:39.074 : en:Chapter 10
Скриншоты
 

Вложения

  • 45,9 KB Просмотры: 0
    Личеров 0
    Сидеров 0
    Файлов 1
    Объем 18 GB

Привет!

Мы группа людей которые решили помочь другим в решении их проблем, а так же пользователям с поиском самых свежих и качественных инфопродуктов. За 4 с небольшим месяца мы создали этот форум на который заходят ежедневно тысячи человек и посещаемость постоянно растёт. Мы создали панель лицензирования для защиты PHP скриптов от воровства и SEO панель для мониторинга наших сайтов и выбора верной стратегии их развития. Мы надеемся что то что мы создали пригодится Вам и возможно Вы поможете нам развиваться и совершенствоваться вместе с Вами.

Статистика форума

Темы
406.640
Сообщения
465.116
Пользователи
84.568
Новый пользователь
Max007

Приложения форума для iOS и Android


У ркн там нет власти ;)
Приватные разговоры
Помощь Пользователи
    Вы не присоединились ни к одной комнате.