За последнюю неделю опубликовано 27 новых материалов.
Инструкция новичку Путеводитель по форуму Прокси для Telegram Показать подсказки , это бомба!

Скачать Пуля / Bullet (1996) WEBRip-AVC | P, A бесплатно через торрент

  • Поучаствуй (в качестве покупателя) в любых пяти совместных покупках (кроме завершённых и "Моментальных") и получи группу "Новичок" навсегда -> ссылка на раздел
  • Получай до 480 рублей за каждого приглашенного пользователя!
    представляем Вам очередное расширение партнерской программы, подробности описаны тут -> ссылка
  • 90% материалов доступно к скачиванию после простой регистрации!
    Если же ты хочешь скачивать материалы без требования оставлять отзывы то получи группу "Новичок", 10 способов повышения описаны тут -> ссылка
  • К сожалению количество битых ссылок растет и мы уже не можем их оперативно восстанавливать поэтому просим помощи у каждого нашего пользователя.
    С сегодняшнего дня, за каждую восстановленную ссылку мы заплатим Вам.
    Подробнее тут -> ссылка
  • Перенесем твои заслуги с другого ресурса!
    Мы понимаем как сложно прокачивать аккаунты на форумах, вроде раскачал аккаунт, а тут появляется ресурс в 100 раз круче но тоже с системой прокачки и снова качать аккаунт...
    Предлагаем вам перенести Ваши заслуги на другом подобном ресурсе к нам.
    Подробности описаны тут -> ссылка
  • Вы можете получать по 2.5% с каждой покупки и продажи на маркете! Подробности в теме Партнёрская программа
Если Вы не хотите скачивать, Вы всегда можетепосмотретьонлайн, просто нажмите кнопку ниже :

Открыть плеер

Torrent_Bot

Торрент-Бот
Бот форума
4 Окт 2016
93
156
20
Информация о фильме
Название: Пуля / По прозвищу "Пуля"
Оригинальное название: Bullet
Год выхода: 1996
Жанр: боевик, драма, криминал
Режиссер: Джульен Темпл
В ролях: Микки Рурк — Бутч «Пуля» Стейн, Эдриен Броуди — Руби Стейн, Тупак Шакур — Тэнк, Джон Инос III — Лестер, Тед Ливайн — Льюис Стейн, Джерри Грэйсон — Сол Стейн, Донни Уолберг — Big Balls, Майкл Кеннет Уильямс — High Top, Питер Динклэйдж — Building Manager.

О фильме:
Бутч Стайн по кличке Пуля выходит из тюрьмы, где восемь лет отбывал срок за ограбление магазина. Он возвращается в родительский дом. Старший брат потерял рассудок во Вьетнаме, младший расписывающий стены домов рисунками. Отец предлагает работу, казалось бы, можно начать новую жизнь, но первое, что делает Бутч, это колется.



Страна: США
Студия: Clipsal Films, Village Roadshow Pictures, New Line Cinema
Продолжительность: 01:36:06
Перевод: Профессиональный многоголосый, Авторский одноголосый

Файл
Кодек: x264
Качество: WEBRip-AVC
Видео: 1030x574 (16:9), 23.976 fps, ~4163 kbps
Аудио #1: AC3, 192 Kbps, 48.0 KHz, 2 ch - [MVO, ТВЦ]
Аудио #2: AC3, 224 Kbps, 48.0 KHz, 2 ch - [AVO, Д.Есарев] (присутствуетненормативная лексика)
Субтитры: Русские (присутствуетненормативная лексика)

***

***Релиз от:-=DoMiNo=-

M/I
General
Unique ID : 58515580068512761206837662821813297472 (0x2C05B0D765E81F7898FBB09013D3A140)
Complete name : G:Видео_1Пуля_(1996)_WEBRip-AVC_[-=DoMiNo=-].mkv
Format : Matroska
Format version : Version 4
File size : 3.14 GiB
Duration : 1 h 36 min
Overall bit rate : 4 672 kb/s
Movie name : Пуля
Deion : Бутч Стайн по кличке Пуля выходит из тюрьмы, где восемь лет отбывал срок за ограбление магазина. Он возвращается в дом, где живут его родители, старший брат, потерявший рассудок во Вьетнаме, младший, расписывающий стены домов неплохими рисунками. Отец предлагает работу, казалось бы, можно начать новую жизнь, но первое, что делает Бутч, это вкалывает себе наркотик…
Attachments : poster.jpg / backdrop.jpg
ACTORS : Mickey Rourke, Frank Senger, Adrien Brody, John Enos III, Tupac Amaru Shakur, Fatmir Haskaj, Joe Dain, Manny Pérez, Shirley Scott, Heather Laszlo, Jerry Grayson, Suzanne Shepherd, Mario Bosco, Paul Sampson, Anthony Giangrande, Peter Dinklage, Anthony Giangrande, Michael Kenneth Williams, Eddie Daniels, Oni Faida Lampley, Ray Mancini, Larry Romano, Mick O'Rourke, Kevin Pinassi, Donnie Wahlberg, Willy DeVille
COUNTRY : United States
DATE : 1996-03-01
DIRECTOR : Julien Temple
ENCODING_INFO : MATROSKA,WEBM > MKV Пользовательский / H264 > X264 CRF 19.0 Пользовательский_CRF / AC3 > COPY Безопасное / AC3 > COPY Безопасное
GENRE : боевик, драма, триллер
HD_VIDEO : 1
ITUNEXTC : mpaa|R|400|
MEDIA_TYPE : 9
ORIGINAL_TITLE : Bullet
PUBLISHER : Village Roadshow Pictures, Clipsal Films
RATING : 7.39

Video
ID : 1
Format : AVC
Format/Info : Advanced Video Codec
Format profile : High@L4.1
Format settings : CABAC / 10 Ref Frames
Format settings, CABAC : Yes
Format settings, ReFrames : 10 frames
Codec ID : V_MPEG4/ISO/AVC
Duration : 1 h 36 min
Bit rate : 4 163 kb/s
Width : 1 030 pixels
Height : 574 pixels
Display aspect ratio : 16:9
Frame rate mode : Constant
Frame rate : 23.976 (24000/1001) FPS
Color space : YUV
Chroma subsampling : 4:2:0
Bit depth : 8 bits
Scan type : Progressive
Bits/(Pixel*Frame) : 0.294
Stream size : 2.79 GiB (89%)
Title : RIP_BY_-=DoMiNo=-
Writing library : x264 core 155 r2901M 7d0ff22
Encoding settings : cabac=1 / ref=10 / deblock=1:-3:-3 / analyse=0x3:0x133 / me=umh / subme=10 / psy=1 / psy_rd=1.00:0.10 / mixed_ref=1 / me_range=32 / chroma_me=1 / trellis=2 / 8x8dct=1 / cqm=0 / deadzone=21,11 / fast_pskip=1 / chroma_qp_offset=-3 / threads=6 / lookahead_threads=1 / sliced_threads=0 / nr=0 / decimate=1 / interlaced=0 / bluray_compat=0 / constrained_intra=0 / bframes=10 / b_pyramid=2 / b_adapt=2 / b_bias=0 / direct=1 / weightb=1 / open_gop=0 / weightp=2 / keyint=240 / keyint_min=24 / scenecut=40 / intra_refresh=0 / rc=crf / mbtree=0 / crf=19.0 / qcomp=0.60 / qpmin=15 / qpmax=69 / qpstep=4 / ip_ratio=1.40 / pb_ratio=1.30 / aq=1:0.90
Language : English
Default : Yes
Forced : No
Color range : Limited
Color primaries : BT.709
Transfer characteristics : BT.709
Matrix coefficients : BT.709

Audio #1
ID : 2
Format : AC-3
Format/Info : Audio Coding 3
Commercial name : Dolby Digital
Codec ID : A_AC3
Duration : 1 h 36 min
Bit rate mode : Constant
Bit rate : 192 kb/s
Channel(s) : 2 channels
Channel layout : L R
Sampling rate : 48.0 kHz
Frame rate : 31.250 FPS (1536 SPF)
Bit depth : 16 bits
Compression mode : Lossy
Stream size : 132 MiB (4%)
Title : MVO-ТВЦ
Language : Russian
Service kind : Complete Main
Default : Yes
Forced : No

Audio #2
ID : 3
Format : AC-3
Format/Info : Audio Coding 3
Commercial name : Dolby Digital
Codec ID : A_AC3
Duration : 1 h 36 min
Bit rate mode : Constant
Bit rate : 224 kb/s
Channel(s) : 2 channels
Channel layout : L R
Sampling rate : 48.0 kHz
Frame rate : 31.250 FPS (1536 SPF)
Bit depth : 16 bits
Compression mode : Lossy
Stream size : 154 MiB (5%)
Title : AVO-Есарев
Language : Russian
Service kind : Complete Main
Default : No
Forced : No

Text
ID : 4
Format : UTF-8
Codec ID : S_TEXT/UTF8
Codec ID/Info : UTF-8 Plain Text
Language : Russian
Default : Yes
Forced : No

Menu
00:00:00.000 : :Chapter 1
00:04:54.000 : :Chapter 2
00:10:13.000 : :Chapter 3
00:13:09.000 : :Chapter 4
00:18:10.000 : :Chapter 5
00:21:03.000 : :Chapter 6
00:25:56.000 : :Chapter 7
00:30:29.000 : :Chapter 8
00:34:26.000 : :Chapter 9
00:42:08.000 : :Chapter 10
00:45:27.000 : :Chapter 11
00:50:52.000 : :Chapter 12
00:54:17.000 : :Chapter 13
00:57:59.000 : :Chapter 14
01:00:17.000 : :Chapter 15
01:02:51.000 : :Chapter 16
01:05:56.000 : :Chapter 17
01:11:51.000 : :Chapter 18
01:14:52.000 : :Chapter 19
01:17:38.000 : :Chapter 20
01:22:42.000 : :Chapter 21
01:27:49.000 : :Chapter 22
01:31:37.000 : :Chapter 23
01:35:50.000 : :Chapter 24
Скриншоты
 

Вложения

  • 19,9 KB Просмотры: 1
    Личеров 0
    Сидеров 0
    Файлов 1
    Объем 3,1 GB

Привет!

Мы группа людей которые решили помочь другим в решении их проблем, а так же пользователям с поиском самых свежих и качественных инфопродуктов. За 4 с небольшим месяца мы создали этот форум на который заходят ежедневно тысячи человек и посещаемость постоянно растёт. Мы создали панель лицензирования для защиты PHP скриптов от воровства и SEO панель для мониторинга наших сайтов и выбора верной стратегии их развития. Мы надеемся что то что мы создали пригодится Вам и возможно Вы поможете нам развиваться и совершенствоваться вместе с Вами.

Статистика форума

Темы
406.549
Сообщения
464.713
Пользователи
83.422
Новый пользователь
turbocar

Приложения форума для iOS и Android


У ркн там нет власти ;)
Приватные разговоры
Помощь Пользователи
    Вы не присоединились ни к одной комнате.