За последнюю неделю опубликовано 53 новых материалов.
Инструкция новичку Путеводитель по форуму Прокси для Telegram Показать подсказки , это бомба!

Скачать Пуля / Bullet (1996) WEB-DLRip 720p | P2, P, A бесплатно через торрент

  • Поучаствуй (в качестве покупателя) в любых пяти совместных покупках (кроме завершённых и "Моментальных") и получи группу "Новичок" навсегда -> ссылка на раздел
  • Получай до 480 рублей за каждого приглашенного пользователя!
    представляем Вам очередное расширение партнерской программы, подробности описаны тут -> ссылка
  • 90% материалов доступно к скачиванию после простой регистрации!
    Если же ты хочешь скачивать материалы без требования оставлять отзывы то получи группу "Новичок", 10 способов повышения описаны тут -> ссылка
  • К сожалению количество битых ссылок растет и мы уже не можем их оперативно восстанавливать поэтому просим помощи у каждого нашего пользователя.
    С сегодняшнего дня, за каждую восстановленную ссылку мы заплатим Вам.
    Подробнее тут -> ссылка
  • Перенесем твои заслуги с другого ресурса!
    Мы понимаем как сложно прокачивать аккаунты на форумах, вроде раскачал аккаунт, а тут появляется ресурс в 100 раз круче но тоже с системой прокачки и снова качать аккаунт...
    Предлагаем вам перенести Ваши заслуги на другом подобном ресурсе к нам.
    Подробности описаны тут -> ссылка
  • Вы можете получать по 2.5% с каждой покупки и продажи на маркете! Подробности в теме Партнёрская программа
Если Вы не хотите скачивать, Вы всегда можетепосмотретьонлайн, просто нажмите кнопку ниже :

Открыть плеер

Torrent_Bot

Торрент-Бот
Бот форума
4 Окт 2016
102
157
20



Информация о фильме
Название: Пуля
Оригинальное название: Bullet
Год выхода: 1996
Жанр: боевик, драма, криминал
Режиссер: Джульен Темпл
В ролях: Микки Рурк, Тупак Шакур, Фрэнк Сенгер, Эдриан Броуди, Джон Инос III, Фатмир Хэскей, Джозеф Дэйн, Мэнни Перес, Ширли Скотт, Хезер Лазло, Джерри Грэйсон, Сюзанн Шеперд, Тед Левайн, Мэттью Пауэрс, Джерри Дин, Джина Фигуроа, Марио
Боске, Ник Скотти, Джейсон Уолинер, Горацио Ле Дон, Вилли Де Вилле, Мик О’Рурк, Джои Рурк, Кевин Пинасси

О фильме:
Бутч Стайн по кличке Пуля выходит из тюрьмы, где восемь лет отбывал срок за ограбление магазина. Он возращается в дом, где живут его родители, старший брат, потерявший рассудок во Вьетнаме, младший, расписывающий стены домов неплохими рисунками. Отец предлагает работу, казалось бы, можно начать новую жизнь, но первое, что делает Бутч, это вкалывает себе наркотик…



Страна: США
Студия: Clipsal Films, Village Roadshow Pictures
Продолжительность: 01:36:06
Перевод: Профессиональный двухголосый закадровый (Кубик в Кубе), профессиональный многоголосый закадровый (R5, "Фильм-Экспорт" по заказу "ТВЦ"), авторский (Дмитрий Штамп, Василий Горчаков, Дмитрий Есарёв, Алексей Багичев)

Файл
Кодек: MPEG-4 AVC
Качество: WEB-DLRip 720p
Видео: 1280x696, 29.970 fps, 7279 Kbps, 0.273 bits/pixel
Звук:
Audio Rus: AC3, 48.0 KHz, 6 ch, 448 kbps | профессиональный двухголосый закадровый, Кубик в Кубе
Audio Rus: AC3, 48.0 KHz, 6 ch, 448 kbps | авторский одноголосый закадровый, Д.Штамп
Audio Rus: DTS, 48.0 KHz, 6 ch, 755 kbps | профессиональный многоголосый закадровый, R5
Audio Rus: AC3, 48.0 KHz, 2 ch, 192 kbps | профессиональный многоголосый закадровый, Фильм-Экспорт
Audio Rus: AC3, 48.0 KHz, 2 ch, 224 kbps | авторский одноголосый закадровый, В.Горчаков
Audio Rus: AC3, 48.0 KHz, 2 ch, 224 kbps | авторский одноголосый закадровый, Д.Есарев
Audio Rus: AC3, 48.0 KHz, 6 ch, 448 kbps | авторский одноголосый закадровый, А.Багичев
Audio Ukr: AC3, 48.0 KHz, 6 ch, 448 kbps | профессиональный многоголосый закадровый, maxxi-tv
Audio Eng: DTS, 48.0 KHz, 6 ch, 448 kbps | оригинал
Субтитры: Английские, русские

Семпл

Скриншоты

Media Info
Общее
Уникальный идентификатор : 74652408791512314942447880345912344946 (0x382987EC6B522F6525F7BB7312340172)
Формат : Matroska
Версия формата : Version 4
Размер файла : 7,33 Гбайт
Продолжительность : 1 ч. 36 м.
Общий поток : 10,9 Мбит/сек
Название фильма : Bullet (1996)
Дата кодирования : UTC 2019-06-03 18:34:08
Программа кодирования : mkvmerge v33.1.0 ('Primrose') 64-bit
Библиотека кодирования : libebml v1.3.7 + libmatroska v1.5.0

Видео
Идентификатор : 1
Формат : AVC
Формат/Информация : Advanced Video Codec
Профиль формата : High@L4.1
Настройки формата : CABAC / 9 Ref Frames
Параметр CABAC формата : Да
Параметр RefFrames формата : 9 кадров
Идентификатор кодека : V_MPEG4/ISO/AVC
Продолжительность : 1 ч. 36 м.
Битрейт : 7279 Кбит/сек
Ширина : 1280 пикселей
Высота : 696 пикселей
Соотношение сторон : 1,85:1
Режим частоты кадров : Постоянный
Частота кадров : 29,970 (29970/1000) кадров/сек
Цветовое пространство : YUV
Субдискретизация насыщенности : 4:2:0
Битовая глубина : 8 бит
Тип развёртки : Прогрессивная
Бит/(Пиксели*Кадры) : 0.273
Размер потока : 4,89 Гбайт (67%)
Заголовок : Bullet (1996)
Библиотека кодирования : x264 core 130 r2273 b3065e6
Настройки программы : cabac=1 / ref=9 / deblock=1:-3:-3 / analyse=0x3:0x133 / me=tesa / subme=11 /

psy=1 / psy_rd=1.00:0.10 / mixed_ref=1 / me_range=32 / chroma_me=1 / trellis=2 / 8x8dct=1 / cqm=0 / deadzone=21,11 /

fast_pskip=0 / chroma_qp_offset=-3 / threads=6 / lookahead_threads=1 / sliced_threads=0 / nr=0 / decimate=1 / interlaced=0 /

bluray_compat=0 / constrained_intra=0 / bframes=16 / b_pyramid=2 / b_adapt=2 / b_bias=0 / direct=3 / weightb=1 / open_gop=0

/ weightp=2 / keyint=250 / keyint_min=25 / scenecut=40 / intra_refresh=0 / rc_lookahead=60 / rc=2pass / mbtree=1 /

bitrate=7279 / ratetol=1.0 / qcomp=0.60 / qpmin=0 / qpmax=69 / qpstep=4 / cplxblur=20.0 / qblur=0.5 / ip_ratio=1.40 /

aq=1:1.00
Язык : English
Default : Да
Forced : Нет

Аудио #1
Идентификатор : 2
Формат : AC-3
Формат/Информация : Audio Coding 3
Коммерческое название : Dolby Digital
Идентификатор кодека : A_AC3
Продолжительность : 1 ч. 36 м.
Вид битрейта : Постоянный
Битрейт : 448 Кбит/сек
Каналы : 6 каналов
ChannelLayout : L R C LFE Ls Rs
Частота : 48,0 КГц
Частота кадров : 31,250 кадров/сек (1536 SPF)
Битовая глубина : 16 бит
Метод сжатия : С потерями
Размер потока : 308 Мбайт (4%)
Заголовок : KvK
Язык : Russian
Default : Да
Forced : Нет

Аудио #2
Идентификатор : 3
Формат : AC-3
Формат/Информация : Audio Coding 3
Коммерческое название : Dolby Digital
Идентификатор кодека : A_AC3
Продолжительность : 1 ч. 36 м.
Вид битрейта : Постоянный
Битрейт : 448 Кбит/сек
Каналы : 6 каналов
ChannelLayout : L R C LFE Ls Rs
Частота : 48,0 КГц
Частота кадров : 31,250 кадров/сек (1536 SPF)
Битовая глубина : 16 бит
Метод сжатия : С потерями
Размер потока : 308 Мбайт (4%)
Заголовок : AC3, 6 ch, 448 Kbps, Дмитрий Штамп
Язык : Russian
Default : Нет
Forced : Нет

Аудио #3
Идентификатор : 4
Формат : DTS
Формат/Информация : Digital Theater Systems
Идентификатор кодека : A_DTS
Продолжительность : 1 ч. 36 м.
Вид битрейта : Постоянный
Битрейт : 755 Кбит/сек
Каналы : 6 каналов
ChannelLayout : C L R Ls Rs LFE
Частота : 48,0 КГц
Частота кадров : 93,750 кадра/сек (512 SPF)
Битовая глубина : 24 бит
Метод сжатия : С потерями
Размер потока : 519 Мбайт (7%)
Заголовок : DTS, 6 ch, 755 Kbps, MVO, R5
Язык : Russian
Default : Нет
Forced : Нет

Аудио #4
Идентификатор : 5
Формат : AC-3
Формат/Информация : Audio Coding 3
Коммерческое название : Dolby Digital
Идентификатор кодека : A_AC3
Продолжительность : 1 ч. 36 м.
Вид битрейта : Постоянный
Битрейт : 192 Кбит/сек
Каналы : 2 канала
ChannelLayout : L R
Частота : 48,0 КГц
Частота кадров : 31,250 кадров/сек (1536 SPF)
Битовая глубина : 16 бит
Метод сжатия : С потерями
Размер потока : 132 Мбайт (2%)
Заголовок : AC3, 2 ch, 192 Kbps, MVO, 'ТВЦ'
Язык : Russian
Default : Нет
Forced : Нет

Аудио #5
Идентификатор : 6
Формат : AC-3
Формат/Информация : Audio Coding 3
Коммерческое название : Dolby Digital
Идентификатор кодека : A_AC3
Продолжительность : 1 ч. 36 м.
Вид битрейта : Постоянный
Битрейт : 224 Кбит/сек
Каналы : 2 канала
ChannelLayout : L R
Частота : 48,0 КГц
Частота кадров : 31,250 кадров/сек (1536 SPF)
Битовая глубина : 16 бит
Метод сжатия : С потерями
Размер потока : 154 Мбайт (2%)
Заголовок : AC3, 2 ch, 224 Kbps, Василий Горчаков
Язык : Russian
Default : Нет
Forced : Нет

Аудио #6
Идентификатор : 7
Формат : AC-3
Формат/Информация : Audio Coding 3
Коммерческое название : Dolby Digital
Идентификатор кодека : A_AC3
Продолжительность : 1 ч. 36 м.
Вид битрейта : Постоянный
Битрейт : 224 Кбит/сек
Каналы : 2 канала
ChannelLayout : L R
Частота : 48,0 КГц
Частота кадров : 31,250 кадров/сек (1536 SPF)
Битовая глубина : 16 бит
Метод сжатия : С потерями
Размер потока : 154 Мбайт (2%)
Заголовок : AC3, 2 ch, 224 Kbps, Дмитрий Есарёв
Язык : Russian
Default : Нет
Forced : Нет

Аудио #7
Идентификатор : 8
Формат : AC-3
Формат/Информация : Audio Coding 3
Коммерческое название : Dolby Digital
Идентификатор кодека : A_AC3
Продолжительность : 1 ч. 36 м.
Вид битрейта : Постоянный
Битрейт : 448 Кбит/сек
Каналы : 6 каналов
ChannelLayout : L R C LFE Ls Rs
Частота : 48,0 КГц
Частота кадров : 31,250 кадров/сек (1536 SPF)
Битовая глубина : 16 бит
Метод сжатия : С потерями
Размер потока : 308 Мбайт (4%)
Заголовок : AC3, 6 ch, 448 Kbps, Алексей Багичев
Язык : Russian
Default : Нет
Forced : Нет

Аудио #8
Идентификатор : 9
Формат : AC-3
Формат/Информация : Audio Coding 3
Коммерческое название : Dolby Digital
Идентификатор кодека : A_AC3
Продолжительность : 1 ч. 36 м.
Вид битрейта : Постоянный
Битрейт : 448 Кбит/сек
Каналы : 6 каналов
ChannelLayout : L R C LFE Ls Rs
Частота : 48,0 КГц
Частота кадров : 31,250 кадров/сек (1536 SPF)
Битовая глубина : 16 бит
Метод сжатия : С потерями
Размер потока : 308 Мбайт (4%)
Заголовок : AC3, 6 ch, 448 Kbps, Українська
Язык : Ukrainian
Default : Нет
Forced : Нет

Аудио #9
Идентификатор : 10
Формат : AC-3
Формат/Информация : Audio Coding 3
Коммерческое название : Dolby Digital
Идентификатор кодека : A_AC3
Продолжительность : 1 ч. 36 м.
Вид битрейта : Постоянный
Битрейт : 448 Кбит/сек
Каналы : 6 каналов
ChannelLayout : L R C LFE Ls Rs
Частота : 48,0 КГц
Частота кадров : 31,250 кадров/сек (1536 SPF)
Битовая глубина : 16 бит
Метод сжатия : С потерями
Размер потока : 308 Мбайт (4%)
Заголовок : AC3, 6 ch, 448 Kbps, Original
Язык : English
Default : Нет
Forced : Нет

Текст #1
Идентификатор : 11
Формат : UTF-8
Идентификатор кодека : S_TEXT/UTF8
Идентификатор кодека/Информация : UTF-8 Plain Text
Продолжительность : 1 ч. 30 м.
Битрейт : 97 бит/сек
ElementCount : 1032
Размер потока : 64,7 Кбайт (0%)
Заголовок : Дмитрий Штамп aka sf@irat
Язык : Russian
Default : Нет
Forced : Нет

Текст #2
Идентификатор : 12
Формат : UTF-8
Идентификатор кодека : S_TEXT/UTF8
Идентификатор кодека/Информация : UTF-8 Plain Text
Продолжительность : 1 ч. 29 м.
Битрейт : 57 бит/сек
ElementCount : 1026
Размер потока : 37,7 Кбайт (0%)
Язык : English
Default : Нет
Forced : Нет
 

Вложения

  • 147,5 KB Просмотры: 1
    Личеров 0
    Сидеров 0
    Файлов 1
    Объем 7,3 GB

Привет!

Мы группа людей которые решили помочь другим в решении их проблем, а так же пользователям с поиском самых свежих и качественных инфопродуктов. За 4 с небольшим месяца мы создали этот форум на который заходят ежедневно тысячи человек и посещаемость постоянно растёт. Мы создали панель лицензирования для защиты PHP скриптов от воровства и SEO панель для мониторинга наших сайтов и выбора верной стратегии их развития. Мы надеемся что то что мы создали пригодится Вам и возможно Вы поможете нам развиваться и совершенствоваться вместе с Вами.

Статистика форума

Темы
405.476
Сообщения
462.589
Пользователи
80.678
Новый пользователь
lesopic

Приложения форума для iOS и Android


У ркн там нет власти ;)
Приватные разговоры
Помощь Пользователи
    Вы не присоединились ни к одной комнате.