За последнюю неделю опубликовано 32 новых материалов.
Инструкция новичку Путеводитель по форуму Прокси для Telegram Показать подсказки , это бомба!

Скачать Психопаспорт: Грешники системы / Psycho-Pass: Sinners of the System [01-03 из 03] (2019) WEBRip 1080p | D | СВ-Дубль бесплатно через торрент

  • Поучаствуй (в качестве покупателя) в любых пяти совместных покупках (кроме завершённых и "Моментальных") и получи группу "Новичок" навсегда -> ссылка на раздел
  • Получай до 480 рублей за каждого приглашенного пользователя!
    представляем Вам очередное расширение партнерской программы, подробности описаны тут -> ссылка
  • 90% материалов доступно к скачиванию после простой регистрации!
    Если же ты хочешь скачивать материалы без требования оставлять отзывы то получи группу "Новичок", 10 способов повышения описаны тут -> ссылка
  • К сожалению количество битых ссылок растет и мы уже не можем их оперативно восстанавливать поэтому просим помощи у каждого нашего пользователя.
    С сегодняшнего дня, за каждую восстановленную ссылку мы заплатим Вам.
    Подробнее тут -> ссылка
  • Перенесем твои заслуги с другого ресурса!
    Мы понимаем как сложно прокачивать аккаунты на форумах, вроде раскачал аккаунт, а тут появляется ресурс в 100 раз круче но тоже с системой прокачки и снова качать аккаунт...
    Предлагаем вам перенести Ваши заслуги на другом подобном ресурсе к нам.
    Подробности описаны тут -> ссылка
  • Вы можете получать по 2.5% с каждой покупки и продажи на маркете! Подробности в теме Партнёрская программа

Torrent_Bot

Торрент-Бот
Бот форума
4 Окт 2016
79
193
20


Информация о фильме
Название: Психопаспорт: Грешники системы
Оригинальное название: Psycho-Pass: Sinners of the System
Год выхода: 2019
Жанр: боевик, фантастика
Режиссер: Наоёси Сиотани

О фильме:
Психопаспорт: Грешники системы — Преступление и наказание / Psycho-Pass: Sinners of the System Case.1 - Tsumi to Bachi
Действия разворачиваются в 2117 году, спустя около полугода после событий фильма «Психопаспорт. Фильм». Бюро Общественной Безопасности расследует странные события, связанные со специальным учреждением для содержания потенциальных преступников под названием «Обитель». С помощью новой комбинации наркотиков и особой терапии в «Обители» удалось создать идеальное общество нового типа, где потенциальные преступники действуют в гармонии друг с другом и выполняют работу, полезную для общества, сохраняя свой коэффициент преступности на удовлетворительном уровне. Однако, когда в здание Бюро врезается автомобиль, управляемый травмированной женщиной — психологом-консультантом, работающем в «Обители», чьё психологическое состояние было повреждено из-за неизвестных наркотиков — становится ясно, что общество, созданное «Обителью», не так идеально, как все считают. © Shikimori

Психопаспорт: Грешники системы — Первый блюститель / Psycho-Pass: Sinners of the System Case.2 - First Guardian
События происходят летом 2112 года, перед тем как Аканэ Цунэмори была назначена инспектором первой группы отдела уголовных расследований Бюро Общественной Безопасности. Тэппэй Суго, опытный пилот пятнадцатой объединённой оперативной группы Вооружённых сил, присоединяется к военной операции на острове Окинава. Тремя месяцами позднее беспилотный боевой дрон открывает огонь по Министерству обороны в Токио.
Исполнитель первой группы отдела уголовных расследований Бюро Общественной Безопасности Томоми Масаока отправляется на военную базу Суго, чтобы расследовать происшествие в Токио. © Shikimori

Психопаспорт: Грешники системы — По ту сторону царства / Psycho-Pass: Sinners of the System Case.3 - Onshuu no Kanata ni
События происходят после инцидента, происшедшего в 2116 году на территории Ассоциации государств Юго-Восточной Азии, после которых Синъя Когами продолжает странствовать. В маленькой южно-азиатской стране Синъя спасает автобус с беженцами от вооружённых партизан. Среди беженцев находится молодая девушка — Тэнцзынь Вангчук. Тэнцзынь упрашивает Синъю научить её бороться, чтобы отомстить за убийство её родителей. © Shikimori







Страна: Япония
Продолжительность: 00:57:36 (первый фильм) | 00:57:35 (второй фильм) | 01:04:52 (третий фильм)
Перевод: Дублированный (профессиональный) | СВ-Дубль (по заказу МедиаФильм)

Файл
Формат: MKV
Кодек: MPEG-4 AVC
Качество: WEBRip 1080p | IVI |
Видео: 1920x1080, ~5 120 kb/s, 25.000 FPS, 8 bit
Аудио (русский): AAC LC, 256-384 kb/s, 2 channels, 48.0 kHz
Субтитры: отсутствуют


Релиз от:


Скриншоты


MediaInfo
Психопаспорт: Грешники системы — Преступление и наказание / Psycho-Pass: Sinners of the System Case.1 - Tsumi to Bachi

General
Unique ID : 302572077364611446288055765705236346523 (0xE3A1432D82DD602E726277E19982F69B)
Complete name : [KORSARS]_Psycho-Pass.Sinners.of.the.System.Case.1.Tsumi.to.Bachi.WEBRip.1080p_[СВ-Дубль].mkv
Format : Matroska
Format version : Version 4
File size : 2.15 GiB
Duration : 57 min 36 s
Overall bit rate : 5 355 kb/s
Movie name : [KORSARS]_Psycho-Pass.Sinners.of.the.System.Case.1.Tsumi.to.Bachi.WEBRip.1080p_[СВ-Дубль]
Encoded date : UTC 2020-09-19 13:09:53
Writing application : mkvmerge v50.0.0 ('Awakenings') 64-bit
Writing library : libebml v1.4.0 + libmatroska v1.6.2

Video
ID : 1
Format : AVC
Format/Info : Advanced Video Codec
Format profile : [email protected]
Format settings : CABAC / 4 Ref Frames
Format settings, CABAC : Yes
Format settings, Reference : 4 frames
Codec ID : V_MPEG4/ISO/AVC
Duration : 57 min 35 s
Bit rate : 5 120 kb/s
Width : 1 920 pixels
Height : 1 080 pixels
Display aspect ratio : 16:9
Frame rate mode : Constant
Frame rate : 25.000 FPS
Color space : YUV
Chroma subsampling : 4:2:0
Bit depth : 8 bits
Scan type : Progressive
Bits/(Pixel*Frame) : 0.099
Stream size : 2.05 GiB (95%)
Title : [KORSARS]_Psycho-Pass.Sinners.of.the.System.Case.1.Tsumi.to.Bachi.WEBRip.1080p_[СВ-Дубль]
Writing library : x264 core 148
Encoding settings : cabac=1 / ref=3 / deblock=1:0:0 / analyse=0x3:0x113 / me=hex / subme=7 / psy=1 / psy_rd=1.00:0.00 / mixed_ref=1 / me_range=16 / chroma_me=1 / trellis=1 / 8x8dct=1 / cqm=0 / deadzone=21,11 / fast_pskip=1 / chroma_qp_offset=-2 / threads=24 / lookahead_threads=4 / sliced_threads=0 / nr=0 / decimate=1 / interlaced=0 / bluray_compat=0 / constrained_intra=0 / bframes=6 / b_pyramid=2 / b_adapt=1 / b_bias=0 / direct=1 / weightb=1 / open_gop=0 / weightp=2 / keyint=50 / keyint_min=26 / scenecut=0 / intra_refresh=0 / rc_lookahead=40 / rc=2pass / mbtree=1 / bitrate=5120 / ratetol=1.0 / qcomp=0.60 / qpmin=0 / qpmax=69 / qpstep=4 / cplxblur=20.0 / qblur=0.5 / vbv_maxrate=7680 / vbv_bufsize=20480 / nal_hrd=none / filler=0 / ip_ratio=1.40 / aq=1:1.00
Default : Yes
Forced : No

Audio
ID : 2
Format : AAC LC
Format/Info : Advanced Audio Codec Low Complexity
Codec ID : A_AAC-2
Duration : 57 min 36 s
Bit rate : 256 kb/s
Channel(s) : 2 channels
Channel layout : L R
Sampling rate : 48.0 kHz
Frame rate : 46.875 FPS (1024 SPF)
Compression mode : Lossy
Delay relative to video : -43 ms
Stream size : 105 MiB (5%)
Title : [KORSARS]_Psycho-Pass.Sinners.of.the.System.Case.1.Tsumi.to.Bachi.WEBRip.1080p_[СВ-Дубль]
Language : Russian
Default : Yes
Forced : No




Психопаспорт: Грешники системы — Первый блюститель / Psycho-Pass: Sinners of the System Case.2 - First Guardian

General
Unique ID : 61913607916021507737210924806750583220 (0x2E94208C93FEA76CCD22DA676773B9B4)
Complete name : [KORSARS]_Psycho-Pass.Sinners.of.the.System.Case.2.First.Guardian.WEBRip.1080p_[СВ-Дубль].mkv
Format : Matroska
Format version : Version 4
File size : 2.22 GiB
Duration : 57 min 35 s
Overall bit rate : 5 509 kb/s
Movie name : [KORSARS]_Psycho-Pass.Sinners.of.the.System.Case.2.First.Guardian.WEBRip.1080p_[СВ-Дубль]
Encoded date : UTC 2020-09-19 12:53:21
Writing application : mkvmerge v50.0.0 ('Awakenings') 64-bit
Writing library : libebml v1.4.0 + libmatroska v1.6.2

Video
ID : 1
Format : AVC
Format/Info : Advanced Video Codec
Format profile : [email protected]
Format settings : CABAC / 4 Ref Frames
Format settings, CABAC : Yes
Format settings, Reference : 4 frames
Codec ID : V_MPEG4/ISO/AVC
Duration : 57 min 35 s
Bit rate : 5 120 kb/s
Width : 1 920 pixels
Height : 1 080 pixels
Display aspect ratio : 16:9
Frame rate mode : Constant
Frame rate : 25.000 FPS
Color space : YUV
Chroma subsampling : 4:2:0
Bit depth : 8 bits
Scan type : Progressive
Bits/(Pixel*Frame) : 0.099
Stream size : 2.06 GiB (93%)
Title : [KORSARS]_Psycho-Pass.Sinners.of.the.System.Case.2.First.Guardian.WEBRip.1080p_[СВ-Дубль]
Writing library : x264 core 148
Encoding settings : cabac=1 / ref=3 / deblock=1:0:0 / analyse=0x3:0x113 / me=hex / subme=7 / psy=1 / psy_rd=1.00:0.00 / mixed_ref=1 / me_range=16 / chroma_me=1 / trellis=1 / 8x8dct=1 / cqm=0 / deadzone=21,11 / fast_pskip=1 / chroma_qp_offset=-2 / threads=34 / lookahead_threads=5 / sliced_threads=0 / nr=0 / decimate=1 / interlaced=0 / bluray_compat=0 / constrained_intra=0 / bframes=6 / b_pyramid=2 / b_adapt=1 / b_bias=0 / direct=1 / weightb=1 / open_gop=0 / weightp=2 / keyint=50 / keyint_min=26 / scenecut=0 / intra_refresh=0 / rc_lookahead=40 / rc=2pass / mbtree=1 / bitrate=5120 / ratetol=1.0 / qcomp=0.60 / qpmin=0 / qpmax=69 / qpstep=4 / cplxblur=20.0 / qblur=0.5 / vbv_maxrate=7680 / vbv_bufsize=20480 / nal_hrd=none / filler=0 / ip_ratio=1.40 / aq=1:1.00
Default : Yes
Forced : No

Audio
ID : 2
Format : AAC LC
Format/Info : Advanced Audio Codec Low Complexity
Codec ID : A_AAC-2
Duration : 57 min 35 s
Bit rate : 384 kb/s
Channel(s) : 2 channels
Channel layout : L R
Sampling rate : 48.0 kHz
Frame rate : 46.875 FPS (1024 SPF)
Compression mode : Lossy
Delay relative to video : -21 ms
Stream size : 161 MiB (7%)
Title : [KORSARS]_Psycho-Pass.Sinners.of.the.System.Case.2.First.Guardian.WEBRip.1080p_[СВ-Дубль]
Language : Russian
Default : Yes
Forced : No




Психопаспорт: Грешники системы — По ту сторону царства / Psycho-Pass: Sinners of the System Case.3 - Onshuu no Kanata ni

General
Unique ID : 49363424070589751710854877889187734867 (0x25230CB65AA94D397EDCC53E6316E553)
Complete name : [KORSARS]_Psycho-Pass.Sinners.of.the.System.Case.3.Onshuu.no.Kanata.ni.WEBRip.1080p_[СВ-Дубль].mkv
Format : Matroska
Format version : Version 4
File size : 2.49 GiB
Duration : 1 h 4 min
Overall bit rate : 5 488 kb/s
Movie name : [KORSARS]_Psycho-Pass.Sinners.of.the.System.Case.3.Onshuu.no.Kanata.ni.WEBRip.1080p_[СВ-Дубль]
Encoded date : UTC 2020-09-19 12:55:06
Writing application : mkvmerge v50.0.0 ('Awakenings') 64-bit
Writing library : libebml v1.4.0 + libmatroska v1.6.2

Video
ID : 1
Format : AVC
Format/Info : Advanced Video Codec
Format profile : [email protected]
Format settings : CABAC / 4 Ref Frames
Format settings, CABAC : Yes
Format settings, Reference : 4 frames
Codec ID : V_MPEG4/ISO/AVC
Duration : 1 h 4 min
Bit rate : 5 120 kb/s
Width : 1 920 pixels
Height : 1 080 pixels
Display aspect ratio : 16:9
Frame rate mode : Constant
Frame rate : 25.000 FPS
Color space : YUV
Chroma subsampling : 4:2:0
Bit depth : 8 bits
Scan type : Progressive
Bits/(Pixel*Frame) : 0.099
Stream size : 2.31 GiB (93%)
Title : [KORSARS]_Psycho-Pass.Sinners.of.the.System.Case.3.Onshuu.no.Kanata.ni.WEBRip.1080p_[СВ-Дубль]
Writing library : x264 core 148
Encoding settings : cabac=1 / ref=3 / deblock=1:0:0 / analyse=0x3:0x113 / me=hex / subme=7 / psy=1 / psy_rd=1.00:0.00 / mixed_ref=1 / me_range=16 / chroma_me=1 / trellis=1 / 8x8dct=1 / cqm=0 / deadzone=21,11 / fast_pskip=1 / chroma_qp_offset=-2 / threads=34 / lookahead_threads=5 / sliced_threads=0 / nr=0 / decimate=1 / interlaced=0 / bluray_compat=0 / constrained_intra=0 / bframes=6 / b_pyramid=2 / b_adapt=1 / b_bias=0 / direct=1 / weightb=1 / open_gop=0 / weightp=2 / keyint=50 / keyint_min=26 / scenecut=0 / intra_refresh=0 / rc_lookahead=40 / rc=2pass / mbtree=1 / bitrate=5120 / ratetol=1.0 / qcomp=0.60 / qpmin=0 / qpmax=69 / qpstep=4 / cplxblur=20.0 / qblur=0.5 / vbv_maxrate=7680 / vbv_bufsize=20480 / nal_hrd=none / filler=0 / ip_ratio=1.40 / aq=1:1.00
Default : Yes
Forced : No

Audio
ID : 2
Format : AAC LC
Format/Info : Advanced Audio Codec Low Complexity
Codec ID : A_AAC-2
Duration : 1 h 4 min
Bit rate : 384 kb/s
Channel(s) : 2 channels
Channel layout : L R
Sampling rate : 48.0 kHz
Frame rate : 46.875 FPS (1024 SPF)
Compression mode : Lossy
Delay relative to video : -21 ms
Stream size : 175 MiB (7%)
Title : [KORSARS]_Psycho-Pass.Sinners.of.the.System.Case.3.Onshuu.no.Kanata.ni.WEBRip.1080p_[СВ-Дубль]
Language : Russian
Default : Yes
Forced : No





Знаю, что в сети есть BD, но желания возится со звуком - у меня нет
 

Вложения

  • 18,5 KB Просмотры: 0
    Личеров 0
    Сидеров 0
    Файлов 3
    Объем 6,9 GB

Привет!

Мы группа людей которые решили помочь другим в решении их проблем, а так же пользователям с поиском самых свежих и качественных инфопродуктов. За 4 с небольшим месяца мы создали этот форум на который заходят ежедневно тысячи человек и посещаемость постоянно растёт. Мы создали панель лицензирования для защиты PHP скриптов от воровства и SEO панель для мониторинга наших сайтов и выбора верной стратегии их развития. Мы надеемся что то что мы создали пригодится Вам и возможно Вы поможете нам развиваться и совершенствоваться вместе с Вами.

Статистика форума

Темы
414.370
Сообщения
475.396
Пользователи
96.561
Новый пользователь
starushka

Приложения форума для iOS и Android


У ркн там нет власти ;)
Приватные разговоры
Помощь Пользователи
    Вы не присоединились ни к одной комнате.