За последнюю неделю опубликовано 168 новых материалов.
Инструкция новичку Путеводитель по форуму Прокси для Telegram Показать подсказки , это бомба!

Скачать Проверка на дорогах (1971) WEB-DL 1080p | iTunes бесплатно через торрент

  • Поучаствуй (в качестве покупателя) в любых пяти совместных покупках (кроме завершённых и "Моментальных") и получи группу "Новичок" навсегда -> ссылка на раздел
  • Получай до 480 рублей за каждого приглашенного пользователя!
    представляем Вам очередное расширение партнерской программы, подробности описаны тут -> ссылка
  • 90% материалов доступно к скачиванию после простой регистрации!
    Если же ты хочешь скачивать материалы без требования оставлять отзывы то получи группу "Новичок", 10 способов повышения описаны тут -> ссылка
  • К сожалению количество битых ссылок растет и мы уже не можем их оперативно восстанавливать поэтому просим помощи у каждого нашего пользователя.
    С сегодняшнего дня, за каждую восстановленную ссылку мы заплатим Вам.
    Подробнее тут -> ссылка
  • Перенесем твои заслуги с другого ресурса!
    Мы понимаем как сложно прокачивать аккаунты на форумах, вроде раскачал аккаунт, а тут появляется ресурс в 100 раз круче но тоже с системой прокачки и снова качать аккаунт...
    Предлагаем вам перенести Ваши заслуги на другом подобном ресурсе к нам.
    Подробности описаны тут -> ссылка
  • Вы можете получать по 2.5% с каждой покупки и продажи на маркете! Подробности в теме Партнёрская программа
Если Вы не хотите скачивать, Вы всегда можетепосмотретьонлайн, просто нажмите кнопку ниже :

Открыть плеер

Torrent_Bot

Торрент-Бот
Бот форума
4 Окт 2016
124
98
20


Информация о фильме
Название: Проверка на дорогах
Год выпуска: 1971
Жанр:Драма, военный
Режиссёр: Алексей Герман
В ролях: Ролан Быков, Анатолий Солоницын, Владимир Заманский, Олег Борисов, Фёдор Одиноков, Геннадий Дюдяев, Майя Булгакова, Николай Бурляев, Виктор Павлов, Юрий Дубровин, Игорь Класс, Анда Зайце, Петр Колбасин, Аркадий Трусов, Игорь Ефимов


Описание:
Зима 1942 года. В одной из северо-западных областей России, оккупированной фашистами, действует партизанский отряд лейтенанта Ивана Локоткова, в прошлом — сельского милиционера. Отряд кормить нечем: в округе — одни сожженные деревни и каратели.

Командир принимает решение захватить фашистский эшелон с продовольствием на узловой станции, где охраняется каждый метр. Провести операцию берется раскаявшийся полицай Лазарев, которого немцы знают в лицо. Но можно ли ему довериться?..

Интересно
• Фильм снят по повести Юрия Германа «Операция „С Новым годом!“».
• Первоначально фильм был снят под названием «Операция «С Новым годом»».
• Выпущен на экран только в 1986 году под названием «Проверка на дорогах».
• Председатель Госкино СССР Алексей Романов усмотрел в фильме нападки на лучшие образцы советского искусства, посвящённого ВОВ, и позаботился о том, чтобы лента не увидела свет. В результате фильм положили «на полку» на 15 лет.
• На роль Локоткова пробовались Михаил Ульянов, Евгений Евстигнеев, Алексей Глазырин.
• Первоначально в роли Лазарева должен был сниматься Владимир Высоцкий.
• На роль Петушкова пробовался Михаил Глузский, но потом он отказался от роли, о чём в последствии сожалел.
• Натурные съёмки картины проводились близ Волги, в Тверской (тогда Калининской) области. Эпизоды на станции Карнаухово снимались в Бологом на путях парка Медведево.
• При воссоздании исторической картины партизанской жизни создателей фильма консультировал Герой Советского Союза Никифоров. По его словам, власовцев уверяли, что Советский Союз примет и простит их, но все случилось наоборот. Когда они отвоевали в Красной Армии, после войны их посадили в тюрьму.
• После успеха «Мой друг Иван Лапшин», «>Проверка на дорогах» была тепло принята и телезрителями и кинокритиками: в 1985 году, среди лучших фильмов года картина заняла 3-е место, Ролан Быков занял 2-е место среди лучших актёров 1986 года, а в 1988 году создатели фильма получили Госпремию СССР.
• Картина была обвинена в дегероизации народного сопротивления врагу во время ВОВ, главный конфликт был назван фальшивым, а режиссёр был уличен в незнании реалий партизанской жизни. Сам Герман считал, что причиной запрета стала показанная в фильме жалость к людям, сдавшимся в плен.
• В финальной сцене Лазарев ведёт огонь из 7,62-мм пулемёта Калашникова, «загримированного» под Maschinengewehr MG 42. Когда он раненый спускается с вышки, из его рук на снег выпадает раскалённый MG 42.




Страна: СССР
Студия: Ленфильм
Продолжительность: 01:35:41
Язык: Русский

Файл
Формат: MKV
Качество: WEB-DL 1080p
Видео: 1920x876 (2,2:1), 23,976 fps, MPEG-4 AVC ~ 4997 Кbps avg, 0.124 bit/pixel
Аудио: AC3, 48 kHz, 6 ch, ~448.00 kbps avg | русский | R5
Аудио: AC3, 48 kHz, 2 ch, ~192.00 kbps avg | русский | iTunes

Субтитры: Отсутствуют

Инфо-файл
Общее
Уникальный идентификатор : 240609338786781755319219640147222089102 (0xB503AC4CCCAD17D2952D3700FE124D8E)
Полное имя : G:pROVERKA_NA_DOROGAH (1971) WEB-DL 1080p.mkv
Формат : Matroska
Версия формата : Version 4 / Version 2
Размер файла : 3,77 Гбайт
Продолжительность : 1 ч. 35 м.
Общий поток : 5628 Кбит/сек
Название фильма : PROVERKA_NA_DOROGAH (1971) WEB-DL 1080p-KAZTORKA
Дата кодирования : UTC 2019-11-16 21:49:58
Программа кодирования : mkvmerge v38.0.0 ('The Silent Type') 64-bit
Библиотека кодирования : libebml v1.3.9 + libmatroska v1.5.2
Обложка : Yes
Attachments : cover.jpg

Видео
Идентификатор : 1
Формат : AVC
Формат/Информация : Advanced Video Codec
Профиль формата : High@L4
Настройки формата : CABAC / 4 Ref Frames
Параметр CABAC формата : Да
Параметр RefFrames формата : 4 кадра
Идентификатор кодека : V_MPEG4/ISO/AVC
Продолжительность : 1 ч. 35 м.
Битрейт : 4997 Кбит/сек
Ширина : 1920 пикселей
Высота : 876 пикселей
Соотношение сторон : 2,2:1
Режим частоты кадров : Постоянный
Частота кадров : 23,976 кадра/сек
Цветовое пространство : YUV
Субдискретизация насыщенности : 4:2:0
Битовая глубина : 8 бит
Тип развёртки : Прогрессивная
Бит/(Пиксели*Кадры) : 0.124
Размер потока : 3,34 Гбайт (89%)
Заголовок : iTunes
Язык : English
Default : Да
Forced : Нет
Цветовой диапазон : Limited
Основные цвета : BT.709
Характеристики трансфера : BT.709
Коэффициенты матрицы : BT.709

Аудио #1
Идентификатор : 2
Формат : AC-3
Формат/Информация : Audio Coding 3
Идентификатор кодека : A_AC3
Продолжительность : 1 ч. 35 м.
Вид битрейта : Постоянный
Битрейт : 448 Кбит/сек
Каналы : 6 каналов
Расположение каналов : Front: L C R, Side: L R, LFE
Частота : 48,0 КГц
Частота кадров : 31,250 кадров/сек (1536 SPF)
Битовая глубина : 16 бит
Метод сжатия : С потерями
Размер потока : 307 Мбайт (8%)
Заголовок : R5
Язык : Russian
Default : Да
Forced : Нет

Аудио #2
Идентификатор : 3
Формат : AC-3
Формат/Информация : Audio Coding 3
Идентификатор кодека : A_AC3
Продолжительность : 1 ч. 35 м.
Вид битрейта : Постоянный
Битрейт : 192 Кбит/сек
Каналы : 2 канала
Расположение каналов : Front: L R
Частота : 48,0 КГц
Частота кадров : 31,250 кадров/сек (1536 SPF)
Битовая глубина : 16 бит
Метод сжатия : С потерями
Размер потока : 131 Мбайт (3%)
Заголовок : iTunes
Язык : Russian
Default : Нет
Forced : Нет

Меню
00:00:00.000 : en:Глава 1
00:08:29.884 : en:Глава 2
00:16:50.384 : en:Глава 3
00:25:00.456 : en:Глава 4
00:33:41.560 : en:Глава 5
00:41:59.140 : en:Глава 6
00:50:53.966 : en:Глава 7
00:59:45.998 : en:Глава 8
01:08:42.451 : en:Глава 9
01:17:06.663 : en:Глава 10
01:24:37.071 : en:Глава 11
01:30:54.489 : en:Глава 12
Скриншоты
 

Вложения

  • 19,7 KB Просмотры: 0
    Личеров 0
    Сидеров 0
    Файлов 1
    Объем 3,8 GB
Ваш e-mail не будет опубликован. Он потребуется для подтверждения Вашего поста.
Оформление текста Нажмите «Ввод», чтобы отправить ответ.

Привет!

Мы группа людей которые решили помочь другим в решении их проблем, а так же пользователям с поиском самых свежих и качественных инфопродуктов. За 4 с небольшим месяца мы создали этот форум на который заходят ежедневно тысячи человек и посещаемость постоянно растёт. Мы создали панель лицензирования для защиты PHP скриптов от воровства и SEO панель для мониторинга наших сайтов и выбора верной стратегии их развития. Мы надеемся что то что мы создали пригодится Вам и возможно Вы поможете нам развиваться и совершенствоваться вместе с Вами.

Статистика форума

Темы
380.770
Сообщения
420.530
Пользователи
51.134
Новый пользователь
ServanteZ

Приложения форума для iOS и Android


У ркн там нет власти ;)
Приватные разговоры
Помощь Пользователи
    Вы не присоединились ни к одной комнате.