За последнюю неделю опубликовано 47 новых материалов.
Инструкция новичку Путеводитель по форуму Прокси для Telegram Показать подсказки , это бомба!

Скачать Проклятие ведьмы снов / Curse of the Dream Witch (2018) WEB-DLRip-AVC от MediaBit | IVI бесплатно через торрент

  • Поучаствуй (в качестве покупателя) в любых пяти совместных покупках (кроме завершённых и "Моментальных") и получи группу "Новичок" навсегда -> ссылка на раздел
  • Получай до 480 рублей за каждого приглашенного пользователя!
    представляем Вам очередное расширение партнерской программы, подробности описаны тут -> ссылка
  • 90% материалов доступно к скачиванию после простой регистрации!
    Если же ты хочешь скачивать материалы без требования оставлять отзывы то получи группу "Новичок", 10 способов повышения описаны тут -> ссылка
  • К сожалению количество битых ссылок растет и мы уже не можем их оперативно восстанавливать поэтому просим помощи у каждого нашего пользователя.
    С сегодняшнего дня, за каждую восстановленную ссылку мы заплатим Вам.
    Подробнее тут -> ссылка
  • Перенесем твои заслуги с другого ресурса!
    Мы понимаем как сложно прокачивать аккаунты на форумах, вроде раскачал аккаунт, а тут появляется ресурс в 100 раз круче но тоже с системой прокачки и снова качать аккаунт...
    Предлагаем вам перенести Ваши заслуги на другом подобном ресурсе к нам.
    Подробности описаны тут -> ссылка
  • Вы можете получать по 2.5% с каждой покупки и продажи на маркете! Подробности в теме Партнёрская программа
Если Вы не хотите скачивать, Вы всегда можетепосмотретьонлайн, просто нажмите кнопку ниже :

Открыть плеер

Torrent_Bot

Торрент-Бот
Бот форума
4 Окт 2016
93
160
20



Информация о фильме
Название: Проклятие ведьмы снов
Оригинальное название: Curse of the Dream Witch
Год выхода: 2018
Жанр: Ужасы, фантастика, фэнтези, боевик, триллер, детектив, приключения
Режиссер: Грифф Ферст, Нэйтан Ферст
В ролях: Тони Амендола, Бобби Кампо, Рэйчел Брук Смит, Лулу Йовович, Caroline Cole, Ник МакКаллум, Томас Иэн Николас, Addie Whittle, Jake Chiasson, Алекс Аристидис

О фильме: Шесть людей, выживших после нападения акул, страдают от кошмаров, где их постоянно преследует кровожадный монстр. Чтобы избавиться от своих страхов, они соглашаются участвовать в исследовании нового лекарства, разработанного доктором Реджинальдом Новаком. Девушка по имени Ава впервые столкнулась с ночными кошмарами много лет назад, когда неизвестный злодей потопил лодку её родителей, и с тех пор она часто видит во снах своих убитых мать и отца, загадочного человека и сверхъестественную акулу. Другие участники эксперимента Новака убеждены, что мистическое чудовище, которое преследует Аву всю жизнь – это та же акула, которая снится им самим.



Страна: США
Студия: Curmudgeon Films
Продолжительность: 01:21:14
Перевод: Профессиональный многоголосый | IVI

Файл
Кодек: MPEG-4 AVC
Качество: WEB-DLRip-AVC
Видео: 2062 Кбит/с, 1024x576, 25.000 кадр/с
Звук: Русский - АС3, 2 ch, 48 kHz, 256 kbps

Семпл
MI
Общее
Уникальный идентификатор : 205943339509521711547030327898670730052 (0x9AEF3E93ACEE50BD54C5910AD5198B44)
Полное имя : D:2020 рипыНа краю светаProklyatie.vedmi.snov.2018.WEB-DLRip(AVC)-MediaBit.mkv
Формат : Matroska
Версия формата : Version 4
Размер файла : 1,32 Гбайт
Продолжительность : 1 ч. 21 м.
Общий поток : 2 318 Кбит/сек
Название фильма : Проклятие ведьмы снов / Curse of the Dream Witch (2018)
Дата кодирования : UTC 2020-07-02 09:36:27
Программа кодирования : mkvmerge v25.0.0 ('Prog Noir') 64-bit
Библиотека кодирования : libebml v1.3.6 + libmatroska v1.4.9

Видео
Идентификатор : 1
Формат : AVC
Формат/Информация : Advanced Video Codec
Профиль формата : [email protected]
Настройки формата : CABAC / 11 Ref Frames
Параметр CABAC формата : Да
Параметр RefFrames формата : 11 кадров
Идентификатор кодека : V_MPEG4/ISO/AVC
Продолжительность : 1 ч. 21 м.
Битрейт : 2 062 Кбит/сек
Ширина : 1 024 пикселя
Высота : 576 пикселей
Соотношение сторон : 16:9
Режим частоты кадров : Постоянный
Частота кадров : 25,000 кадров/сек
Цветовое пространство : YUV
Субдискретизация насыщенности : 4:2:0
Битовая глубина : 8 бит
Тип развёртки : Прогрессивная
Бит/(Пиксели*Кадры) : 0.140
Размер потока : 1,17 Гбайт (89%)
Заголовок : MediaBit
Библиотека кодирования : x264 core 157 r2958 57baac4
Настройки программы : cabac=1 / ref=11 / deblock=1:-3:-3 / analyse=0x3:0x133 / me=umh / subme=9 / psy=1 / psy_rd=1.00:0.15 / mixed_ref=1 / me_range=48 / chroma_me=1 / trellis=1 / 8x8dct=1 / cqm=0 / deadzone=21,11 / fast_pskip=1 / chroma_qp_offset=-3 / threads=6 / lookahead_threads=1 / sliced_threads=0 / nr=0 / decimate=1 / interlaced=0 / bluray_compat=0 / constrained_intra=0 / bframes=11 / b_pyramid=2 / b_adapt=2 / b_bias=11 / direct=3 / weightb=1 / open_gop=0 / weightp=2 / keyint=250 / keyint_min=25 / scenecut=23 / intra_refresh=0 / rc_lookahead=60 / rc=2pass / mbtree=1 / bitrate=2062 / ratetol=1.0 / qcomp=0.60 / qpmin=0 / qpmax=69 / qpstep=4 / cplxblur=20.0 / qblur=0.5 / ip_ratio=1.40 / aq=1:0.90
Default : Да
Forced : Нет

Аудио
Идентификатор : 2
Формат : AC-3
Формат/Информация : Audio Coding 3
Коммерческое название : Dolby Digital
Идентификатор кодека : A_AC3
Продолжительность : 1 ч. 21 м.
Вид битрейта : Постоянный
Битрейт : 256 Кбит/сек
Каналы : 2 канала
Channel layout : L R
Частота : 48,0 КГц
Частота кадров : 31,250 кадров/сек (1536 SPF)
Метод сжатия : С потерями
Размер потока : 149 Мбайт (11%)
Заголовок : MVO | IVI
Язык : Russian
Service kind : Complete Main
Default : Да
Forced : Нет

Меню
00:00:00.000 : :1
00:06:45.405 : :2
00:09:20.601 : :3
00:14:52.557 : :4
00:20:58.506 : :5
00:27:11.253 : :6
00:31:29.301 : :7
00:34:06.249 : :8
00:38:19.668 : :9
00:45:04.155 : :10
00:49:22.997 : :11
00:56:13.531 : :12
01:01:15.790 : :13
01:06:58.715 : :14
01:13:53.129 : :15
01:15:40.985 : :16
Скриншоты
Релиз от:
 

Вложения

  • 14,1 KB Просмотры: 0
    Личеров 0
    Сидеров 0
    Файлов 1
    Объем 1,3 GB

Привет!

Мы группа людей которые решили помочь другим в решении их проблем, а так же пользователям с поиском самых свежих и качественных инфопродуктов. За 4 с небольшим месяца мы создали этот форум на который заходят ежедневно тысячи человек и посещаемость постоянно растёт. Мы создали панель лицензирования для защиты PHP скриптов от воровства и SEO панель для мониторинга наших сайтов и выбора верной стратегии их развития. Мы надеемся что то что мы создали пригодится Вам и возможно Вы поможете нам развиваться и совершенствоваться вместе с Вами.

Статистика форума

Темы
406.639
Сообщения
465.111
Пользователи
84.583
Новый пользователь
кцукецукцукцу

Приложения форума для iOS и Android


У ркн там нет власти ;)
Приватные разговоры
Помощь Пользователи
    Вы не присоединились ни к одной комнате.