За последнюю неделю опубликовано 51 новых материалов.
Инструкция новичку Путеводитель по форуму Прокси для Telegram Показать подсказки , это бомба!

Скачать Проект «Гутенберг» / Wu shuang / Project Gutenberg (2018) BDRip 1080p | HiWayGrope бесплатно через торрент

  • Поучаствуй (в качестве покупателя) в любых пяти совместных покупках (кроме завершённых и "Моментальных") и получи группу "Новичок" навсегда -> ссылка на раздел
  • Получай до 480 рублей за каждого приглашенного пользователя!
    представляем Вам очередное расширение партнерской программы, подробности описаны тут -> ссылка
  • 90% материалов доступно к скачиванию после простой регистрации!
    Если же ты хочешь скачивать материалы без требования оставлять отзывы то получи группу "Новичок", 10 способов повышения описаны тут -> ссылка
  • К сожалению количество битых ссылок растет и мы уже не можем их оперативно восстанавливать поэтому просим помощи у каждого нашего пользователя.
    С сегодняшнего дня, за каждую восстановленную ссылку мы заплатим Вам.
    Подробнее тут -> ссылка
  • Перенесем твои заслуги с другого ресурса!
    Мы понимаем как сложно прокачивать аккаунты на форумах, вроде раскачал аккаунт, а тут появляется ресурс в 100 раз круче но тоже с системой прокачки и снова качать аккаунт...
    Предлагаем вам перенести Ваши заслуги на другом подобном ресурсе к нам.
    Подробности описаны тут -> ссылка
  • Вы можете получать по 2.5% с каждой покупки и продажи на маркете! Подробности в теме Партнёрская программа
Если Вы не хотите скачивать, Вы всегда можетепосмотретьонлайн, просто нажмите кнопку ниже :

Открыть плеер

Torrent_Bot

Торрент-Бот
Бот форума
4 Окт 2016
91
163
20


Информация о фильме
Название: Проект «Гутенберг»
Оригинальное название: Wu shuang (Project Gutenberg)
Год выхода: 2018
Жанр: боевик, криминал, детектив

Режиссер: Феликс Чон

В ролях: Юнь-Фат Чоу, Аарон Квок, Цзинчу Чжан, Кэтрин Чау, Дэвид Ван, Лиу Кай-Чи, Джастин Чунг, Джойс Фэн, Алекс Фун

О фильме: Сидящего в тюрьме мошенника Ли Маня вызывают на допрос в полицию. Его бывшая подруга Юэнь, а ныне — всемирно признанная художница, хочет внести за него залог, и теперь полиция пытается выяснить всё, что тот знает о своём бывшем подельнике по кличке Художник. Некоторое время назад Ли Мань жил в Канаде и безуспешно пытался стать настоящим артистом, но арт-агенты хотели выставлять только работы Юэнь. Парень уже почти отчаялся, когда на него вышел Художник и предложил вместе с командой профессионалов создать супердоллары — неотличимые от настоящих подделки.






Страна: Китай, Гонконг
Продолжительность: 02:10:41
Перевод: Любительский (двухголосый, закадровый) | HiWayGrope


Файл
Кодек: x.264
Качество: BDRip 1080p (Project.Gutenberg.2018.CHINESE.1080p.BluRay.x264-WiKi)
Видео: AVC, 1920x804 (2.40:1), 24.000 fps, 18.5 Mb/s
Аудио #1: AC3, 48.0 KHz, 2 ch, 192 Kbps | RUS
Аудио #2: AC3, 48.0 KHz, 6 ch, 640 Kbps | CHN
Субтитры: Английские, китайские

Сэмпл

MI
General
Unique ID : 188701609234812324639889612205406760886 (0x8DF69BA471321F62BD30D03DF43B2FB6)
Complete name : Project.Gutenberg.2018.1080p.BDRip.mkv
Format : Matroska
Format version : Version 4
File size : 17.6 GiB
Duration : 2 h 10 min
Overall bit rate : 19.3 Mb/s
Encoded date : UTC 2019-06-23 12:19:51
Writing application : mkvmerge v8.3.0 ('Over the Horizon') 64bit
Writing library : libebml v1.3.1 + libmatroska v1.4.2

Video
ID : 1
Format : AVC
Format/Info : Advanced Video Codec
Format profile : [email protected]
Format settings : CABAC / 5 Ref Frames
Format settings, CABAC : Yes
Format settings, ReFrames : 5 frames
Codec ID : V_MPEG4/ISO/AVC
Duration : 2 h 10 min
Bit rate : 18.5 Mb/s
Width : 1 920 pixels
Height : 804 pixels
Display aspect ratio : 2.40:1
Frame rate mode : Constant
Frame rate : 24.000 FPS
Color space : YUV
Chroma subsampling : 4:2:0
Bit depth : 8 bits
Scan type : Progressive
Bits/(Pixel*Frame) : 0.499
Stream size : 16.8 GiB (96%)
Writing library : x264 core 155 r2867+82 a249126 t_mod_Custom_2 [[email protected] X86_64]
Encoding settings : cabac=1 / ref=5 / deblock=1:-3:-3 / analyse=0x3:0x133 / me=umh / subme=10 / psy=1 / fade_compensate=0.00 / psy_rd=1.05:0.00 / mixed_ref=1 / me_range=32 / chroma_me=1 / trellis=2 / 8x8dct=1 / cqm=0 / deadzone=21,11 / fast_pskip=0 / chroma_qp_offset=-2 / threads=24 / lookahead_threads=4 / sliced_threads=0 / nr=0 / decimate=0 / interlaced=0 / bluray_compat=0 / constrained_intra=0 / fgo=0 / bframes=7 / b_pyramid=2 / b_adapt=2 / b_bias=0 / direct=3 / weightb=1 / open_gop=0 / weightp=2 / keyint=250 / keyint_min=24 / scenecut=40 / intra_refresh=0 / rc_lookahead=60 / rc=2pass / mbtree=0 / bitrate=18500 / ratetol=1.0 / qcomp=0.60 / qpmin=0:0:0 / qpmax=69:69:69 / qpstep=4 / cplxblur=20.0 / qblur=0.5 / vbv_maxrate=62500 / vbv_bufsize=78125 / nal_hrd=none / filler=0 / ip_ratio=1.20 / pb_ratio=1.15 / aq=1:0.80 / aq-sensitivity=10.00 / aq-factor=1.00:1.00:1.00 / aq2=0 / aq3=0 / zones=2077,2408,b=2/86353,88927,b=2
Language : English
Default : Yes
Forced : No

Audio #1
ID : 2
Format : AC-3
Format/Info : Audio Coding 3
Commercial name : Dolby Digital
Codec ID : A_AC3
Duration : 2 h 10 min
Bit rate mode : Constant
Bit rate : 192 kb/s
Channel(s) : 2 channels
Channel layout : L R
Sampling rate : 48.0 kHz
Frame rate : 31.250 FPS (1536 SPF)
Bit depth : 16 bits
Compression mode : Lossy
Stream size : 179 MiB (1%)
Title : HiWayGrope
Language : Russian
Default : Yes
Forced : No

Audio #2
ID : 3
Format : AC-3
Format/Info : Audio Coding 3
Commercial name : Dolby Digital
Codec ID : A_AC3
Duration : 2 h 10 min
Bit rate mode : Constant
Bit rate : 640 kb/s
Channel(s) : 6 channels
Channel layout : L R C LFE Ls Rs
Sampling rate : 48.0 kHz
Frame rate : 31.250 FPS (1536 SPF)
Bit depth : 16 bits
Compression mode : Lossy
Stream size : 598 MiB (3%)
Language : Chinese
Default : No
Forced : No

Text #1
ID : 4
Format : UTF-8
Codec ID : S_TEXT/UTF8
Codec ID/Info : UTF-8 Plain Text
Duration : 2 h 3 min
Bit rate : 38 b/s
Count of elements : 1417
Stream size : 35.0 KiB (0%)
Title : Full
Language : English
Default : No
Forced : No

Text #2
ID : 5
Format : UTF-8
Codec ID : S_TEXT/UTF8
Codec ID/Info : UTF-8 Plain Text
Duration : 2 h 3 min
Bit rate : 30 b/s
Count of elements : 1385
Stream size : 27.6 KiB (0%)
Title : CHS_R3
Language : Chinese
Default : No
Forced : No

Text #3
ID : 6
Format : UTF-8
Codec ID : S_TEXT/UTF8
Codec ID/Info : UTF-8 Plain Text
Duration : 2 h 3 min
Bit rate : 30 b/s
Count of elements : 1385
Stream size : 27.6 KiB (0%)
Title : CHT_R3
Language : Chinese
Default : No
Forced : No

Menu
00:00:00.000 : en:00:00:00.000
00:05:30.875 : en:00:05:30.875
00:10:19.583 : en:00:10:19.583
00:15:24.000 : en:00:15:24.000
00:21:28.458 : en:00:21:28.458
00:29:20.583 : en:00:29:20.583
00:34:57.333 : en:00:34:57.333
00:44:10.875 : en:00:44:10.875
00:55:46.583 : en:00:55:46.583
01:03:40.708 : en:01:03:40.708
01:11:23.750 : en:01:11:23.750
01:20:25.833 : en:01:20:25.833
01:25:26.042 : en:01:25:26.042
01:30:21.167 : en:01:30:21.167
01:34:57.250 : en:01:34:57.250
01:43:10.792 : en:01:43:10.792
01:49:39.125 : en:01:49:39.125
01:55:43.208 : en:01:55:43.208
01:58:50.417 : en:01:58:50.417
02:06:48.250 : en:02:06:48.250
Скриншоты
 

Вложения

  • 44,9 KB Просмотры: 1
    Личеров 0
    Сидеров 0
    Файлов 1
    Объем 17,6 GB

Привет!

Мы группа людей которые решили помочь другим в решении их проблем, а так же пользователям с поиском самых свежих и качественных инфопродуктов. За 4 с небольшим месяца мы создали этот форум на который заходят ежедневно тысячи человек и посещаемость постоянно растёт. Мы создали панель лицензирования для защиты PHP скриптов от воровства и SEO панель для мониторинга наших сайтов и выбора верной стратегии их развития. Мы надеемся что то что мы создали пригодится Вам и возможно Вы поможете нам развиваться и совершенствоваться вместе с Вами.

Статистика форума

Темы
410.570
Сообщения
469.116
Пользователи
86.189
Новый пользователь
sakovichelena7777

Приложения форума для iOS и Android


У ркн там нет власти ;)
Приватные разговоры
Помощь Пользователи
    Вы не присоединились ни к одной комнате.