За последнюю неделю опубликовано 51 новых материалов.
Инструкция новичку Путеводитель по форуму Прокси для Telegram Показать подсказки , это бомба!

Скачать Пробуждение смерти / Wake of Death (2004) HDRip-AVC | P бесплатно через торрент

  • Поучаствуй (в качестве покупателя) в любых пяти совместных покупках (кроме завершённых и "Моментальных") и получи группу "Новичок" навсегда -> ссылка на раздел
  • Получай до 480 рублей за каждого приглашенного пользователя!
    представляем Вам очередное расширение партнерской программы, подробности описаны тут -> ссылка
  • 90% материалов доступно к скачиванию после простой регистрации!
    Если же ты хочешь скачивать материалы без требования оставлять отзывы то получи группу "Новичок", 10 способов повышения описаны тут -> ссылка
  • К сожалению количество битых ссылок растет и мы уже не можем их оперативно восстанавливать поэтому просим помощи у каждого нашего пользователя.
    С сегодняшнего дня, за каждую восстановленную ссылку мы заплатим Вам.
    Подробнее тут -> ссылка
  • Перенесем твои заслуги с другого ресурса!
    Мы понимаем как сложно прокачивать аккаунты на форумах, вроде раскачал аккаунт, а тут появляется ресурс в 100 раз круче но тоже с системой прокачки и снова качать аккаунт...
    Предлагаем вам перенести Ваши заслуги на другом подобном ресурсе к нам.
    Подробности описаны тут -> ссылка
  • Вы можете получать по 2.5% с каждой покупки и продажи на маркете! Подробности в теме Партнёрская программа
Если Вы не хотите скачивать, Вы всегда можетепосмотретьонлайн, просто нажмите кнопку ниже :

Открыть плеер

Torrent_Bot

Торрент-Бот
Бот форума
4 Окт 2016
91
163
20


Информация о фильме
Название: Пробуждение смерти
Оригинальное название: Wake of Death
Год выхода: 2004
Жанр: Боевик, криминал, драма
Режиссер: Филипп Мартинез
В ролях: Жан-Клод Ван Дамм, Саймон Ям, Филип Тан, Валери Тиан, Тони Шиена, Клод Эрнандез, Лиза Кинг, Энтони Фриджон, Дэнни Кеог, Пьер Маре

О фильме:
Планы бывалого гангстера Бена Арчера уйти на покой внезапно срываются, когда его жена решает на время приютить юную беглянку из Азии. Арчеры не подозревают, что Ким - дочь могущественного босса китайской триады Сун Куана, на поиски которой он бросил своих головорезов. Обнаружив ее следы в Америке, Сун Куан устраняет всех на своем пути, и хотя Ким и сын Арчера спасаются, его супруга погибает. Отныне в жизни Бена есть единственная цель - беспощадная месть…



Страна: Великобритания, Франция, Германия, Испания, ЮАР
Продолжительность: 01:30:35
Перевод: Профессиональный многоголосый (Лицензия)

Файл
Кодек: x.264
Качество: HDRip-AVC | исх. BDRip 1080р
Видео: h264 / 2250 kbps / 1024x576 / 23,976 fps
Звук: 48 kHz / 6 ch / 384 kbps
Субтитры: Английские

Релиз от: Alukard14

log
x264 [info]: frame I:2683 Avg QP:18.45 size: 47071
x264 [info]: frame P:19758 Avg QP:20.68 size: 22340
x264 [info]: frame B:107865 Avg QP:22.94 size: 8820
x264 [info]: consecutive B-frames: 8.1% 0.4% 0.5% 0.8% 0.9% 1.1% 1.2% 1.8% 1.5% 1.6% 82.0%
x264 [info]: mb I I16..4: 8.7% 81.0% 10.3%
x264 [info]: mb P I16..4: 1.1% 15.6% 1.3% P16..4: 33.3% 37.0% 7.6% 0.0% 0.0% skip: 4.0%
x264 [info]: mb B I16..4: 0.1% 1.8% 0.2% B16..8: 35.6% 19.6% 2.5% direct: 5.8% skip:34.4% L0:44.5% L1:46.1% BI: 9.4%
x264 [info]: 8x8 transform intra:84.2% inter:60.8%
x264 [info]: direct mvs spatial:99.4% temporal:0.6%
x264 [info]: coded y,uvDC,uvAC intra: 88.1% 62.2% 22.1% inter: 23.4% 14.2% 1.2%
x264 [info]: i16 v,h,dc,p: 22% 17% 11% 50%
x264 [info]: i8 v,h,dc,ddl,ddr,vr,hd,vl,hu: 7% 7% 8% 10% 14% 13% 13% 12% 14%
x264 [info]: i4 v,h,dc,ddl,ddr,vr,hd,vl,hu: 11% 11% 6% 9% 14% 13% 13% 10% 13%
x264 [info]: i8c dc,h,v,p: 28% 34% 20% 18%
x264 [info]: Weighted P-Frames: Y:5.2% UV:2.6%
x264 [info]: ref P L0: 50.8% 6.8% 19.7% 6.7% 5.0% 3.2% 2.8% 1.3% 1.3% 1.0% 0.9% 0.4% 0.0%
x264 [info]: ref B L0: 76.6% 11.6% 5.2% 2.4% 1.4% 1.1% 0.8% 0.5% 0.2% 0.1%
x264 [info]: ref B L1: 90.8% 9.2%
x264 [info]: kb/s:2236.04
MediaInfo
Общее
Уникальный идентификатор : 250811634652849837223968439892257731995 (0xBCB090526F7282D3A26B15057692F59B)
Полное имя : E:TestWake.of.Death.2004.HDRip-AVC.by.Alukard14.mkv
Формат : Matroska
Версия формата : Version 2
Размер файла : 1,66 Гбайт
Продолжительность : 1 ч. 30 м.
Общий поток : 2621 Кбит/сек
Название фильма : Wake of Death 2004 - NovaLan
Дата кодирования : UTC 2019-06-10 13:49:57
Программа кодирования : mkvmerge v4.1.1 ('Bouncin' Back') сборка от Jul 3 2010 22:54:08
Библиотека кодирования : libebml v1.0.0 + libmatroska v1.0.0

Видео
Идентификатор : 1
Формат : AVC
Формат/Информация : Advanced Video Codec
Профиль формата : [email protected]
Настройки формата : CABAC / 11 Ref Frames
Параметр CABAC формата : Да
Параметр RefFrames формата : 11 кадров
Идентификатор кодека : V_MPEG4/ISO/AVC
Продолжительность : 1 ч. 30 м.
Битрейт : 2250 Кбит/сек
Ширина : 1024 пикселя
Высота : 576 пикселей
Соотношение сторон : 16:9
Режим частоты кадров : Постоянный
Частота кадров : 23,976 кадра/сек
Цветовое пространство : YUV
Субдискретизация насыщенности : 4:2:0
Битовая глубина : 8 бит
Тип развёртки : Прогрессивная
Бит/(Пиксели*Кадры) : 0.159
Размер потока : 1,38 Гбайт (83%)
Библиотека кодирования : x264 core 148 r2638 7599210
Настройки программы : cabac=1 / ref=11 / deblock=1:-3:-3 / analyse=0x3:0x113 / me=umh / subme=11 / psy=1 / psy_rd=1.00:0.20 / mixed_ref=1 / me_range=48 / chroma_me=1 / trellis=2 / 8x8dct=1 / cqm=0 / deadzone=21,11 / fast_pskip=0 / chroma_qp_offset=-3 / threads=9 / lookahead_threads=1 / sliced_threads=0 / nr=0 / decimate=0 / interlaced=0 / bluray_compat=0 / constrained_intra=0 / bframes=10 / b_pyramid=2 / b_adapt=0 / b_bias=0 / direct=3 / weightb=1 / open_gop=0 / weightp=2 / keyint=240 / keyint_min=24 / scenecut=40 / intra_refresh=0 / rc_lookahead=40 / rc=2pass / mbtree=0 / bitrate=2250 / ratetol=1.0 / qcomp=0.60 / qpmin=0 / qpmax=69 / qpstep=2 / cplxblur=20.0 / qblur=0.5 / vbv_maxrate=14000 / vbv_bufsize=14000 / nal_hrd=none / filler=0 / ip_ratio=1.40 / pb_ratio=1.30 / aq=1:1.00
Default : Да
Forced : Нет

Аудио
Идентификатор : 2
Формат : AC-3
Формат/Информация : Audio Coding 3
Режим смешивания : Header stripping
Идентификатор кодека : A_AC3
Продолжительность : 1 ч. 30 м.
Вид битрейта : Постоянный
Битрейт : 384 Кбит/сек
Каналы : 6 каналов
Расположение каналов : Front: L C R, Side: L R, LFE
Частота : 48,0 КГц
Частота кадров : 31,250 кадров/сек (1536 SPF)
Битовая глубина : 16 бит
Метод сжатия : С потерями
Размер потока : 249 Мбайт (15%)
Default : Да
Forced : Нет

Текст
Идентификатор : 3
Формат : UTF-8
Идентификатор кодека : S_TEXT/UTF8
Идентификатор кодека/Информация : UTF-8 Plain Text
Язык : English
Default : Нет
Forced : Нет
Statistics Tags Issue : mkvmerge v7.8.0 ('River Man') 64bit built on Mar 27 2015 16:31:37 2015-03-29 13:34:13 / mkvmerge v4.1.1 ('Bouncin' Back') сборка от Jul 3 2010 22:54:08 2019-06-10 13:49:57
FromStats_BitRate : 20
FromStats_Duration : 01:24:53.502000000
FromStats_FrameCount : 390
FromStats_StreamSize : 12920

Меню
00:00:00.000 : en:00:00:00.000
00:07:17.269 : en:00:07:17.269
00:15:56.581 : en:00:15:56.581
00:23:56.018 : en:00:23:56.018
00:32:23.942 : en:00:32:23.942
00:40:51.239 : en:00:40:51.239
00:47:15.248 : en:00:47:15.248
00:55:19.106 : en:00:55:19.106
01:02:47.472 : en:01:02:47.472
01:10:08.453 : en:01:10:08.453
01:16:47.603 : en:01:16:47.603
01:23:52.360 : en:01:23:52.360
Скриншоты
 

Вложения

  • 17,6 KB Просмотры: 1
    Личеров 0
    Сидеров 0
    Файлов 1
    Объем 1,7 GB

Привет!

Мы группа людей которые решили помочь другим в решении их проблем, а так же пользователям с поиском самых свежих и качественных инфопродуктов. За 4 с небольшим месяца мы создали этот форум на который заходят ежедневно тысячи человек и посещаемость постоянно растёт. Мы создали панель лицензирования для защиты PHP скриптов от воровства и SEO панель для мониторинга наших сайтов и выбора верной стратегии их развития. Мы надеемся что то что мы создали пригодится Вам и возможно Вы поможете нам развиваться и совершенствоваться вместе с Вами.

Статистика форума

Темы
410.570
Сообщения
469.116
Пользователи
86.194
Новый пользователь
S3ne4ka

Приложения форума для iOS и Android


У ркн там нет власти ;)
Приватные разговоры
Помощь Пользователи
    Вы не присоединились ни к одной комнате.