За последнюю неделю опубликовано 57 новых материалов.
Инструкция новичку Путеводитель по форуму Прокси для Telegram Показать подсказки , это бомба!

Скачать Прятки с наличными / Cache Cash (1994) BDRip 720p от msltel | P бесплатно через торрент

  • Поучаствуй (в качестве покупателя) в любых пяти совместных покупках (кроме завершённых и "Моментальных") и получи группу "Новичок" навсегда -> ссылка на раздел
  • Получай до 480 рублей за каждого приглашенного пользователя!
    представляем Вам очередное расширение партнерской программы, подробности описаны тут -> ссылка
  • 90% материалов доступно к скачиванию после простой регистрации!
    Если же ты хочешь скачивать материалы без требования оставлять отзывы то получи группу "Новичок", 10 способов повышения описаны тут -> ссылка
  • К сожалению количество битых ссылок растет и мы уже не можем их оперативно восстанавливать поэтому просим помощи у каждого нашего пользователя.
    С сегодняшнего дня, за каждую восстановленную ссылку мы заплатим Вам.
    Подробнее тут -> ссылка
  • Перенесем твои заслуги с другого ресурса!
    Мы понимаем как сложно прокачивать аккаунты на форумах, вроде раскачал аккаунт, а тут появляется ресурс в 100 раз круче но тоже с системой прокачки и снова качать аккаунт...
    Предлагаем вам перенести Ваши заслуги на другом подобном ресурсе к нам.
    Подробности описаны тут -> ссылка
  • Вы можете получать по 2.5% с каждой покупки и продажи на маркете! Подробности в теме Партнёрская программа
Если Вы не хотите скачивать, Вы всегда можетепосмотретьонлайн, просто нажмите кнопку ниже :

Открыть плеер

Torrent_Bot

Торрент-Бот
Бот форума
4 Окт 2016
92
160
20



Название: Прятки с наличными
Оригинальное название: Cache Cash
Год выпуска: 1994
Страна: Франция
Жанр: драма, комедия, криминал, приключения
Продолжительность: 01:28:48
Перевод: профессиональный многоголосый
Режиссер: Клод Пиното
В ролях: Мишель Дюшоссуа, Жорж Вильсон, Жан-Пьер Дарруссен, Жозефин Серр, Жан-Клод Дрейфюс, Жан Карме, Софи Брусталь, Роз Тьерри, Фредерик ван ден Дрише, Орельен Вик, Мари Барилье

О фильме: Двое подростков Лиза и Антуан случайно становятся обладателями крупной суммы денег. Никому ни слова не сказав, друзья убегают из дома и отправляются на побережье, где планируют весело провести время и освободить пленных омаров, предназначенных для дорогого ресторана. Но они и не подозревают, что по их следу идут кровожадные бандиты, намеревающиеся вернуть “свое”...



Качество: BDRip 720p
Формат: MKV
Видео: MPEG-4 AVC, 5289 Кбит/с, 1280x690, 23.976 кадр/с
Аудио 1: русский, AC3, 192 kbps, 2 ch, 48 kHz [закадровый многоголосый, т/к Россия]
Аудио 2: французский, AC3, 448 kbps, 6 ch, 48 kHz [оригинал]
Субтитры 1: русские (на места без перевода)
Субтитры 2: английские
Главы/чаптеры

MediaInfo
Общее
Уникальный идентификатор : 231964203151231279338502976747851664435 (0xAE82AE346D92712EB41F1ABA7362CC33)
Полное имя : D:VideoПрятки с наличными.1994.BDRip 720p msltel.mkv
Формат : Matroska
Версия формата : Version 4
Размер файла : 3,68 Гбайт
Продолжительность : 1 ч. 28 м.
Общий поток : 5 930 Кбит/сек
Название фильма : Rip msltel
Дата кодирования : UTC 2020-07-26 04:43:34
Программа кодирования : mkvmerge v8.2.0 ('World of Adventure') 64bit
Библиотека кодирования : libebml v1.3.1 + libmatroska v1.4.2

Видео
Идентификатор : 1
Формат : AVC
Формат/Информация : Advanced Video Codec
Профиль формата : [email protected]
Настройки формата : CABAC / 9 Ref Frames
Параметр CABAC формата : Да
Параметр RefFrames формата : 9 кадров
Идентификатор кодека : V_MPEG4/ISO/AVC
Продолжительность : 1 ч. 28 м.
Битрейт : 5 289 Кбит/сек
Ширина : 1 280 пикселей
Высота : 690 пикселей
Соотношение сторон : 1,85:1
Режим частоты кадров : Постоянный
Частота кадров : 23,976 (24000/1001) кадра/сек
Цветовое пространство : YUV
Субдискретизация насыщенности : 4:2:0
Битовая глубина : 8 бит
Тип развёртки : Прогрессивная
Бит/(Пиксели*Кадры) : 0.250
Размер потока : 3,28 Гбайт (89%)
Библиотека кодирования : x264 core 159 r2991 1771b55
Настройки программы : cabac=1 / ref=9 / deblock=1:-2:-2 / analyse=0x3:0x113 / me=umh / subme=11 / psy=1 / psy_rd=1.00:0.15 / mixed_ref=1 / me_range=32 / chroma_me=1 / trellis=2 / 8x8dct=1 / cqm=0 / deadzone=21,11 / fast_pskip=0 / chroma_qp_offset=-3 / threads=6 / lookahead_threads=1 / sliced_threads=0 / nr=0 / decimate=1 / interlaced=0 / bluray_compat=0 / constrained_intra=0 / bframes=7 / b_pyramid=2 / b_adapt=2 / b_bias=0 / direct=1 / weightb=1 / open_gop=0 / weightp=2 / keyint=230 / keyint_min=23 / scenecut=40 / intra_refresh=0 / rc_lookahead=40 / rc=crf / mbtree=1 / crf=18.7 / qcomp=0.60 / qpmin=0 / qpmax=69 / qpstep=4 / vbv_maxrate=50000 / vbv_bufsize=62500 / crf_max=0.0 / nal_hrd=none / filler=0 / ip_ratio=1.40 / aq=1:1.00
Язык : French
Default : Да
Forced : Нет

Аудио #1
Идентификатор : 2
Формат : AC-3
Формат/Информация : Audio Coding 3
Коммерческое название : Dolby Digital
Идентификатор кодека : A_AC3
Продолжительность : 1 ч. 28 м.
Вид битрейта : Постоянный
Битрейт : 192 Кбит/сек
Каналы : 2 канала
Channel layout : L R
Частота : 48,0 КГц
Частота кадров : 31,250 кадров/сек (1536 SPF)
Метод сжатия : С потерями
Размер потока : 122 Мбайт (3%)
Заголовок : MVO т/к Россия
Язык : Russian
Service kind : Complete Main
Default : Да
Forced : Нет

Аудио #2
Идентификатор : 3
Формат : AC-3
Формат/Информация : Audio Coding 3
Коммерческое название : Dolby Digital
Идентификатор кодека : A_AC3
Продолжительность : 1 ч. 28 м.
Вид битрейта : Постоянный
Битрейт : 448 Кбит/сек
Каналы : 6 каналов
Channel layout : L R C LFE Ls Rs
Частота : 48,0 КГц
Частота кадров : 31,250 кадров/сек (1536 SPF)
Метод сжатия : С потерями
Размер потока : 285 Мбайт (8%)
Заголовок : оригинал
Язык : French
Service kind : Complete Main
Default : Нет
Forced : Нет

Текст #1
Идентификатор : 4
Формат : UTF-8
Идентификатор кодека : S_TEXT/UTF8
Идентификатор кодека/Информация : UTF-8 Plain Text
Продолжительность : 3 м. 7 с.
Битрейт : 47 бит/сек
Count of elements : 21
Размер потока : 1,08 Кбайт (0%)
Заголовок : русские на места без перевода
Язык : Russian
Default : Да
Forced : Нет

Текст #2
Идентификатор : 5
Формат : UTF-8
Идентификатор кодека : S_TEXT/UTF8
Идентификатор кодека/Информация : UTF-8 Plain Text
Продолжительность : 1 ч. 26 м.
Битрейт : 53 бит/сек
Count of elements : 1110
Размер потока : 33,6 Кбайт (0%)
Заголовок : английские
Язык : English
Default : Нет
Forced : Нет

Меню
00:00:00.000 : :Chapter 01
00:07:25.654 : :Chapter 02
00:14:11.017 : :Chapter 03
00:26:55.906 : :Chapter 04
00:31:51.368 : :Chapter 05
00:39:38.918 : :Chapter 06
00:45:56.128 : :Chapter 07
00:54:46.825 : :Chapter 08
00:59:49.878 : :Chapter 09
01:04:45.507 : :Chapter 10
01:13:36.996 : :Chapter 11
01:19:57.042 : :Chapter 12
 

Вложения

  • 19,3 KB Просмотры: 0
    Личеров 0
    Сидеров 0
    Файлов 1
    Объем 3,7 GB

Привет!

Мы группа людей которые решили помочь другим в решении их проблем, а так же пользователям с поиском самых свежих и качественных инфопродуктов. За 4 с небольшим месяца мы создали этот форум на который заходят ежедневно тысячи человек и посещаемость постоянно растёт. Мы создали панель лицензирования для защиты PHP скриптов от воровства и SEO панель для мониторинга наших сайтов и выбора верной стратегии их развития. Мы надеемся что то что мы создали пригодится Вам и возможно Вы поможете нам развиваться и совершенствоваться вместе с Вами.

Статистика форума

Темы
406.651
Сообщения
465.096
Пользователи
84.640
Новый пользователь
kvach

Приложения форума для iOS и Android


У ркн там нет власти ;)
Приватные разговоры
Помощь Пользователи
    Вы не присоединились ни к одной комнате.