За последнюю неделю опубликовано 187 новых материалов.
Инструкция новичку Путеводитель по форуму Прокси для Telegram Показать подсказки , это бомба!

Скачать Призрак в доспехах / Ghost in the Shell / Koukaku Kidoutai (1995) BDRip 720p от NNNB | D, P2, A, L1 бесплатно через торрент

  • Поучаствуй (в качестве покупателя) в любых пяти совместных покупках (кроме завершённых и "Моментальных") и получи группу "Новичок" навсегда -> ссылка на раздел
  • Получай до 480 рублей за каждого приглашенного пользователя!
    представляем Вам очередное расширение партнерской программы, подробности описаны тут -> ссылка
  • 90% материалов доступно к скачиванию после простой регистрации!
    Если же ты хочешь скачивать материалы без требования оставлять отзывы то получи группу "Новичок", 10 способов повышения описаны тут -> ссылка
  • К сожалению количество битых ссылок растет и мы уже не можем их оперативно восстанавливать поэтому просим помощи у каждого нашего пользователя.
    С сегодняшнего дня, за каждую восстановленную ссылку мы заплатим Вам.
    Подробнее тут -> ссылка
  • Перенесем твои заслуги с другого ресурса!
    Мы понимаем как сложно прокачивать аккаунты на форумах, вроде раскачал аккаунт, а тут появляется ресурс в 100 раз круче но тоже с системой прокачки и снова качать аккаунт...
    Предлагаем вам перенести Ваши заслуги на другом подобном ресурсе к нам.
    Подробности описаны тут -> ссылка
  • Вы можете получать по 2.5% с каждой покупки и продажи на маркете! Подробности в теме Партнёрская программа

Torrent_Bot

Торрент-Бот
Бот форума
4 Окт 2016
124
94
20
bef10abf7ad73234b7adc29d5389c93a.png
Информацияофильме
Русское название: Призрак в доспехах
Оригинальное название: Ghost in the Shell / Koukaku Kidoutai
Год выхода: 1995
Жанр: аниме, мультфильм, фантастика, фэнтези, боевик, триллер
Режиссер: Мамору Осии
Выпущено: Япония
Продолжительность: 01:22:40
Перевод: Дублированный), Профессиональный (Двухголосый, закадровый), Авторский (Одноголосый, закадровый), Любительский (Одноголосый, закадровый)
Роли озвучивали: Ацуко Танака, Акио Ютсука, Коити Ямадэра, Ютака Накано, Тамио Оки, Тэссё Гэнда, Намаки Масакадзу, Масато Яманоути, Синдзи Огава,Мицуру Миямото


Сюжетфильма
2029 год. Границы между государствами окончательно рухнули, благодаря повсеместно распространившимся компьютерным сетям и кибер-технологиям. Когда давно разыскиваемый хакер по кличке «Кукловод» начинает вмешиваться в политику, «9-й Отдел» Министерства Общественной безопасности, группа кибернетически модифицированных полицейских, получает задание найти и остановить хакера. Но в ходе расследования возникает вопрос: кто же такой «Кукловод» в том мире где грань между человеком и машиной практически стерта?..


Файл
Качество: BDRip 720p (исходник Blu-Ray Remux)
Формат: MKV
Видео: 1280x692, 6191 Кбит/сек, 23,976 кадр/сек, AVC, x264, High@L4.1, 1.85:1, 0.292 Бит/[Пиксели*Кадры]
Аудио 1: AC-3, 192 Кбит/сек, 2 канала(ов), 48,0 КГц - Дублированный, ОРТ / Русский
Аудио 2: AC-3, 192 Кбит/сек, 2 канала(ов), 48,0 КГц - Двухголосый закадровый, П. Гланц и И. Королева / Русский
Аудио 3: AC-3, 192 Кбит/сек, 2 канала(ов), 48,0 КГц - Двухголосый закадровый, Tycoon-Studio / Русский
Аудио 4: AC-3, 224 Кбит/сек, 2 канала(ов), 48,0 КГц - Одноголосый закадровый, Гаврилов / Русский
Аудио 5: AC-3, 192 Кбит/сек, 2 канала(ов), 48,0 КГц - Одноголосый закадровый, Гланц / Русский
Аудио 6: AC-3, 192 Кбит/сек, 2 канала(ов), 48,0 КГц - Одноголосый закадровый, Лапшин / Русский
Аудио 7: AC-3, 192 Кбит/сек, 2 канала(ов), 48,0 КГц - Оригинал / Японский
Субтитры: Русские | Полные, Английские | Полные
Форсированные субтитры: Нет
Чаптеры (Главы): Есть

2e2f1790b03f56206a1b56d94cf6e4f4.gif2838ebe8d1ed9f04a9aebd2326bb6136.gifa1ea36b4151afe60530101009ee1811e.gif

Автор Рипа: Группа: a1ef797a50ee2ce1073457ca837ddca8.gif


Скриншоты
75626c095889dc7a7d6437981ff31161.png969048fd0aebf8705e97124db6cf4a10.png4557b7e84503bca3a8185ec7ce9acbdc.png
MediaInfo
Format : Matroska
Format version : Version 2
File size : 4.36 GiB
Duration : 1 h 22 min
Overall bit rate : 7 550 kb/s
Movie name : Ghost in the Shell.(1995).BDRip.720p.[envy]
Encoded date : UTC 2016-12-02 15:44:37
Writing application : mkvmerge v5.8.0 ('No Sleep / Pillow') built on Sep 2 2012 15:37:04
Writing library : libebml v1.2.3 + libmatroska v1.3.0

Video
ID : 1
Format : AVC
Format/Info : Advanced Video Codec
Format profile : High@L4.1
Format settings, CABAC : Yes
Format settings, ReFrames : 9 frames
Codec ID : V_MPEG4/ISO/AVC
Duration : 1 h 22 min
Bit rate : 6 191 kb/s
Width : 1 280 pixels
Height : 692 pixels
Display aspect ratio : 1.85:1
Frame rate mode : Constant
Frame rate : 23.976 (24000/1001) FPS
Color space : YUV
Chroma subsampling : 4:2:0
Bit depth : 8 bits
Scan type : Progressive
Bits/(Pixel*Frame) : 0.292
Stream size : 3.48 GiB (80%)
Title : Ghost in the Shell.(1995).BDRip.720p.[envy]
Writing library : x264 core 148 r2721 72d53ab
Encoding settings : cabac=1 / ref=9 / deblock=1:-2:-2 / analyse=0x3:0x113 / me=umh / subme=11 / psy=1 / psy_rd=1.00:0.00 / mixed_ref=1 / me_range=32 / chroma_me=1 / trellis=2 / 8x8dct=1 / cqm=0 / deadzone=21,11 / fast_pskip=0 / chroma_qp_offset=-2 / threads=12 / lookahead_threads=1 / sliced_threads=0 / nr=0 / decimate=1 / interlaced=0 / bluray_compat=0 / constrained_intra=0 / bframes=5 / b_pyramid=2 / b_adapt=2 / b_bias=0 / direct=3 / weightb=1 / open_gop=0 / weightp=2 / keyint=240 / keyint_min=23 / scenecut=40 / intra_refresh=0 / rc=2pass / mbtree=0 / bitrate=6191 / ratetol=2.0 / qcomp=0.60 / qpmin=0 / qpmax=69 / qpstep=4 / cplxblur=20.0 / qblur=0.5 / ip_ratio=1.40 / pb_ratio=1.30 / aq=2:0.70
Language : Japanese
Default : Yes
Forced : No

Audio #1
ID : 2
Format : AC-3
Format/Info : Audio Coding 3
Mode extension : CM (complete main)
Format settings, Endianness : Big
Codec ID : A_AC3
Duration : 1 h 22 min
Bit rate mode : Constant
Bit rate : 192 kb/s
Channel(s) : 2 channels
Channel positions : Front: L R
Sampling rate : 48.0 kHz
Frame rate : 31.250 FPS (1536 spf)
Compression mode : Lossy
Stream size : 114 MiB (3%)
Title : DUB ОРТ
Language : Russian
Default : Yes
Forced : No

Audio #2
ID : 3
Format : AC-3
Format/Info : Audio Coding 3
Mode extension : CM (complete main)
Format settings, Endianness : Big
Codec ID : A_AC3
Duration : 1 h 22 min
Bit rate mode : Constant
Bit rate : 192 kb/s
Channel(s) : 2 channels
Channel positions : Front: L R
Sampling rate : 48.0 kHz
Frame rate : 31.250 FPS (1536 spf)
Compression mode : Lossy
Stream size : 114 MiB (3%)
Title : DVO П. Гланц и И. Королева
Language : Russian
Default : No
Forced : No

Audio #3
ID : 4
Format : AC-3
Format/Info : Audio Coding 3
Mode extension : CM (complete main)
Format settings, Endianness : Big
Codec ID : A_AC3
Duration : 1 h 22 min
Bit rate mode : Constant
Bit rate : 192 kb/s
Channel(s) : 2 channels
Channel positions : Front: L R
Sampling rate : 48.0 kHz
Frame rate : 31.250 FPS (1536 spf)
Compression mode : Lossy
Stream size : 114 MiB (3%)
Title : DVO Tycoon-Studio
Language : Russian
Default : No
Forced : No

Audio #4
ID : 5
Format : AC-3
Format/Info : Audio Coding 3
Mode extension : CM (complete main)
Format settings, Endianness : Big
Codec ID : A_AC3
Duration : 1 h 22 min
Bit rate mode : Constant
Bit rate : 224 kb/s
Channel(s) : 2 channels
Channel positions : Front: L R
Sampling rate : 48.0 kHz
Frame rate : 31.250 FPS (1536 spf)
Compression mode : Lossy
Stream size : 132 MiB (3%)
Title : AVO Гаврилов
Language : Russian
Default : No
Forced : No

Audio #5
ID : 6
Format : AC-3
Format/Info : Audio Coding 3
Mode extension : CM (complete main)
Format settings, Endianness : Big
Codec ID : A_AC3
Duration : 1 h 22 min
Bit rate mode : Constant
Bit rate : 192 kb/s
Channel(s) : 2 channels
Channel positions : Front: L R
Sampling rate : 48.0 kHz
Frame rate : 31.250 FPS (1536 spf)
Compression mode : Lossy
Stream size : 114 MiB (3%)
Title : AVO Гланц
Language : Russian
Default : No
Forced : No

Audio #6
ID : 7
Format : AC-3
Format/Info : Audio Coding 3
Mode extension : CM (complete main)
Format settings, Endianness : Big
Codec ID : A_AC3
Duration : 1 h 22 min
Bit rate mode : Constant
Bit rate : 192 kb/s
Channel(s) : 2 channels
Channel positions : Front: L R
Sampling rate : 48.0 kHz
Frame rate : 31.250 FPS (1536 spf)
Compression mode : Lossy
Stream size : 114 MiB (3%)
Title : AVO Лапшин
Language : Russian
Default : No
Forced : No

Audio #7
ID : 8
Format : AC-3
Format/Info : Audio Coding 3
Mode extension : CM (complete main)
Format settings, Endianness : Big
Codec ID : A_AC3
Duration : 1 h 22 min
Bit rate mode : Constant
Bit rate : 192 kb/s
Channel(s) : 2 channels
Channel positions : Front: L R
Sampling rate : 48.0 kHz
Frame rate : 31.250 FPS (1536 spf)
Compression mode : Lossy
Stream size : 114 MiB (3%)
Title : JPN
Language : Japanese
Default : No
Forced : No

Text #1
ID : 9
Format : UTF-8
Codec ID : S_TEXT/UTF8
Codec ID/Info : UTF-8 Plain Text
Title : Rus full
Language : Russian
Default : No
Forced : No

Text #2
ID : 10
Format : UTF-8
Codec ID : S_TEXT/UTF8
Codec ID/Info : UTF-8 Plain Text
Title : Eng full
Language : English
Default : No
Forced : No

Menu
00:00:00.000 : :00:00:00.000
00:04:06.163 : :00:04:06.163
00:08:24.754 : :00:08:24.754
00:13:15.169 : :00:13:15.169
00:24:17.706 : :00:24:17.706
00:26:05.063 : :00:26:05.063
00:27:40.158 : :00:27:40.158
00:33:02.981 : :00:33:02.981
00:36:21.513 : :00:36:21.513
00:45:32.271 : :00:45:32.271
00:53:59.486 : :00:53:59.486
00:59:40.410 : :00:59:40.410
01:06:24.355 : :01:06:24.355
01:13:58.434 : :01:13:58.434
01:17:31.480 : :01:17:31.480
 

Вложения

Ваш e-mail не будет опубликован. Он потребуется для подтверждения Вашего поста.
Оформление текста Нажмите «Ввод», чтобы отправить ответ.

Привет!

Мы группа людей которые решили помочь другим в решении их проблем, а так же пользователям с поиском самых свежих и качественных инфопродуктов. За 4 с небольшим месяца мы создали этот форум на который заходят ежедневно тысячи человек и посещаемость постоянно растёт. Мы создали панель лицензирования для защиты PHP скриптов от воровства и SEO панель для мониторинга наших сайтов и выбора верной стратегии их развития. Мы надеемся что то что мы создали пригодится Вам и возможно Вы поможете нам развиваться и совершенствоваться вместе с Вами.

Статистика форума

Темы
378.734
Сообщения
417.982
Пользователи
49.573
Новый пользователь
krd

Приложения форума для iOS и Android


У ркн там нет власти ;)
Приватные разговоры
Помощь Пользователи
    Вы не присоединились ни к одной комнате.