За последнюю неделю опубликовано 48 новых материалов.
Инструкция новичку Путеводитель по форуму Прокси для Telegram Показать подсказки , это бомба!

Скачать Привычка жениться / The Marrying Man (1991) HDRip-AVC от ExKinoRay | D бесплатно через торрент

  • Поучаствуй (в качестве покупателя) в любых пяти совместных покупках (кроме завершённых и "Моментальных") и получи группу "Новичок" навсегда -> ссылка на раздел
  • Получай до 480 рублей за каждого приглашенного пользователя!
    представляем Вам очередное расширение партнерской программы, подробности описаны тут -> ссылка
  • 90% материалов доступно к скачиванию после простой регистрации!
    Если же ты хочешь скачивать материалы без требования оставлять отзывы то получи группу "Новичок", 10 способов повышения описаны тут -> ссылка
  • К сожалению количество битых ссылок растет и мы уже не можем их оперативно восстанавливать поэтому просим помощи у каждого нашего пользователя.
    С сегодняшнего дня, за каждую восстановленную ссылку мы заплатим Вам.
    Подробнее тут -> ссылка
  • Перенесем твои заслуги с другого ресурса!
    Мы понимаем как сложно прокачивать аккаунты на форумах, вроде раскачал аккаунт, а тут появляется ресурс в 100 раз круче но тоже с системой прокачки и снова качать аккаунт...
    Предлагаем вам перенести Ваши заслуги на другом подобном ресурсе к нам.
    Подробности описаны тут -> ссылка
  • Вы можете получать по 2.5% с каждой покупки и продажи на маркете! Подробности в теме Партнёрская программа
Если Вы не хотите скачивать, Вы всегда можетепосмотретьонлайн, просто нажмите кнопку ниже :

Открыть плеер

Torrent_Bot

Торрент-Бот
Бот форума
4 Окт 2016
93
160
20


Информация о фильме
Название: Привычка жениться
Оригинальное название: The Marrying Man
Год выхода: 1991
Жанр: Мелодрама, комедия, музыка
Режиссер: Джерри Рис
В ролях: Ким Бейсингер, Алек Болдуин, Роберт Лоджа, Элизабет Шу, Арманд Ассанте, Пол Райзер, Фишер Стивенс, Питер Добсон, Стив Хитнер, Джереми Робертс, Биг Джон Стадд, Тони Лонго, Том Миланович, Тим Хаузер, Кэри Эдель, Марла Хисли, Карен Медак, Ребекка Стааб, Мелисса Бер, Пол Коллинз, Дэйв Флорек, Джеф Присирр, Тереза Гилмор, Алан Манделл, Элли Энрикез, Шанти Кан, Кларк Гордон, Гретчен Уайлер, Сьюзэн Келлерман, Янни Бренн, Джо Беллан, Дон Кифер, Жуль А. Эпштейн, Робин Фрейтс, Кристен Клоук

О фильме:
Будущий миллионер Чарльз Пирл, наследник фирмы по производству зубной пасты, решил жениться на прелестной, благовоспитанной Адели, дочери голливудского киномагната Лью Хорнера. Но за неделю до свадьбы Чарльз знакомится в Лас-Вегасе с соблазнительной, страстной и бесстыжей певичкой Викки Андерсон, подружкой известного мафиози Багси Сигала. Застав парочку в постели, тот оригинально мстит, заставляя их немедленно пожениться. Так начинаются страдания несчастного плейбоя, мечущегося между бывшей невестой и законной, но небезопасной женой.



Страна: США
Студия: Hollywood Pictures, Odyssey Motion Pictures, Silver Screen Partners IV
Продолжительность: 01:56:23
Перевод: Профессиональный (полное дублирование)

Файл
Формат: MKV
Качество: HDRip-AVC
Видео: MPEG-4 AVC, 704x396, - 818 Кбит/с
Аудио: AAC-HE, 2 ch, - 76 Кбит/с
Субтитры: Нет

MI
Общее
Уникальный идентификатор : 292967124235799274637163455956568023231 (0xDC676A6D31C36761A0623132D5BCA0BF)
Полное имя : D:MOVIESPrivichka.zhenitsya.1991.HDRip-AVC.ExKinoRay.mkv
Формат : Matroska
Версия формата : Version 4
Размер файла : 746 Мбайт
Продолжительность : 1 ч. 56 м.
Общий поток : 896 Кбит/сек
Дата кодирования : UTC 2020-08-12 04:27:21
Программа кодирования : mkvmerge v45.0.0 ('Heaven in Pennies') 64-bit
Библиотека кодирования : libebml v1.3.10 + libmatroska v1.5.2

Видео
Идентификатор : 1
Формат : AVC
Формат/Информация : Advanced Video Codec
Профиль формата : [email protected]
Настройки формата : CABAC / 10 Ref Frames
Параметр CABAC формата : Да
Параметр RefFrames формата : 10 кадров
Идентификатор кодека : V_MPEG4/ISO/AVC
Продолжительность : 1 ч. 56 м.
Битрейт : 818 Кбит/сек
Ширина : 704 пикселя
Высота : 396 пикселей
Соотношение сторон : 16:9
Режим частоты кадров : Постоянный
Частота кадров : 23,976 (24000/1001) кадра/сек
Цветовое пространство : YUV
Субдискретизация насыщенности : 4:2:0
Битовая глубина : 8 бит
Тип развёртки : Прогрессивная
Бит/(Пиксели*Кадры) : 0.122
Размер потока : 681 Мбайт (91%)
Библиотека кодирования : x264 core 160 r3000 33f9e14
Настройки программы : cabac=1 / ref=10 / deblock=1:-3:-3 / analyse=0x3:0x133 / me=umh / subme=10 / psy=1 / psy_rd=1.05:0.12 / mixed_ref=1 / me_range=32 / chroma_me=1 / trellis=2 / 8x8dct=1 / cqm=0 / deadzone=21,11 / fast_pskip=0 / chroma_qp_offset=-3 / threads=6 / lookahead_threads=1 / sliced_threads=0 / nr=0 / decimate=0 / interlaced=0 / bluray_compat=0 / constrained_intra=0 / bframes=11 / b_pyramid=2 / b_adapt=2 / b_bias=0 / direct=3 / weightb=1 / open_gop=0 / weightp=2 / keyint=240 / keyint_min=23 / scenecut=40 / intra_refresh=0 / rc=2pass / mbtree=0 / bitrate=818 / ratetol=1.0 / qcomp=0.60 / qpmin=0 / qpmax=69 / qpstep=4 / cplxblur=20.0 / qblur=0.5 / ip_ratio=1.40 / pb_ratio=1.30 / aq=3:1.00
Default : Да
Forced : Нет
Цветовой диапазон : Limited
Основные цвета : BT.709
Характеристики трансфера : BT.709
Коэффициенты матрицы : BT.709

Аудио
Идентификатор : 2
Формат : AAC LC SBR
Формат/Информация : Advanced Audio Codec Low Complexity with Spectral Band Replication
Коммерческое название : HE-AAC
Настройки формата : Explicit
Идентификатор кодека : A_AAC-2
Продолжительность : 1 ч. 56 м.
Битрейт : 76,0 Кбит/сек
Каналы : 2 канала
Channel layout : L R
Частота : 48,0 КГц
Частота кадров : 23,438 кадра/сек (2048 SPF)
Метод сжатия : С потерями
Задержка видео : 31 мс.
Размер потока : 63,3 Мбайт (8%)
Язык : Russian
Default : Да
Forced : Нет

Меню
00:00:00.000 : en:Chapter 01
00:07:09.428 : en:Chapter 02
00:15:27.927 : en:Chapter 03
00:23:08.011 : en:Chapter 04
00:34:23.686 : en:Chapter 05
00:39:42.004 : en:Chapter 06
00:50:00.998 : en:Chapter 07
00:56:50.407 : en:Chapter 08
01:06:19.600 : en:Chapter 09
01:13:32.032 : en:Chapter 10
01:22:24.939 : en:Chapter 11
01:32:10.149 : en:Chapter 12
01:37:34.849 : en:Chapter 13
01:40:02.997 : en:Chapter 14
01:45:27.946 : en:Chapter 15
Скриншоты

 

Вложения

  • 15,7 KB Просмотры: 0
    Личеров 0
    Сидеров 0
    Файлов 1
    Объем 745,7 MB

Привет!

Мы группа людей которые решили помочь другим в решении их проблем, а так же пользователям с поиском самых свежих и качественных инфопродуктов. За 4 с небольшим месяца мы создали этот форум на который заходят ежедневно тысячи человек и посещаемость постоянно растёт. Мы создали панель лицензирования для защиты PHP скриптов от воровства и SEO панель для мониторинга наших сайтов и выбора верной стратегии их развития. Мы надеемся что то что мы создали пригодится Вам и возможно Вы поможете нам развиваться и совершенствоваться вместе с Вами.

Статистика форума

Темы
406.640
Сообщения
465.124
Пользователи
84.580
Новый пользователь
vvval77

Приложения форума для iOS и Android


У ркн там нет власти ;)
Приватные разговоры
Помощь Пользователи
    Вы не присоединились ни к одной комнате.