За последнюю неделю опубликовано 62 новых материалов.
Инструкция новичку Путеводитель по форуму Прокси для Telegram Показать подсказки , это бомба!

Скачать Привет семье! / The Family Stone (2005) WEB-DLRip 720p от KORSAR | D бесплатно через торрент

  • Поучаствуй (в качестве покупателя) в любых пяти совместных покупках (кроме завершённых и "Моментальных") и получи группу "Новичок" навсегда -> ссылка на раздел
  • Получай до 480 рублей за каждого приглашенного пользователя!
    представляем Вам очередное расширение партнерской программы, подробности описаны тут -> ссылка
  • 90% материалов доступно к скачиванию после простой регистрации!
    Если же ты хочешь скачивать материалы без требования оставлять отзывы то получи группу "Новичок", 10 способов повышения описаны тут -> ссылка
  • К сожалению количество битых ссылок растет и мы уже не можем их оперативно восстанавливать поэтому просим помощи у каждого нашего пользователя.
    С сегодняшнего дня, за каждую восстановленную ссылку мы заплатим Вам.
    Подробнее тут -> ссылка
  • Перенесем твои заслуги с другого ресурса!
    Мы понимаем как сложно прокачивать аккаунты на форумах, вроде раскачал аккаунт, а тут появляется ресурс в 100 раз круче но тоже с системой прокачки и снова качать аккаунт...
    Предлагаем вам перенести Ваши заслуги на другом подобном ресурсе к нам.
    Подробности описаны тут -> ссылка
  • Вы можете получать по 2.5% с каждой покупки и продажи на маркете! Подробности в теме Партнёрская программа
Если Вы не хотите скачивать, Вы всегда можетепосмотретьонлайн, просто нажмите кнопку ниже :

Открыть плеер

Torrent_Bot

Торрент-Бот
Бот форума
4 Окт 2016
92
160
20






Привет семье! / The Family Stone
Год выпуска: 2005
Жанр:Драма, мелодрама, комедия
Продолжительность: 01:43:18
Выпущено: США, Fox 2000 Pictures, Michael London Productions, The Family Stone
Режиссер: Томас Безуча
В ролях: Сара Джессика Паркер, Дермот Малруни, Дайан Китон, Клер Дэйнс, Рэйчел МакАдамс, Люк Уилсон, Крэйг Т. Нельсон, Тайрон Джордано, Брайан Дж. Уайт, Элизабет Ризер, Пол Шнайдер, Саванна Стелин, Джэми Калер, Роберт Джиогарди, Кэрол Локателл

О фильме: Семья Стоунов отличается «редкостным единением и взаимопониманием». И когда любимый сынок Эверетт Стоун приводит в дом невесту Мередит, эксцентричная семейка решает вынести молодым свое решительное несогласие с намечающимся положением вещей.


Релиз от:


Качество: WEB-DLRip 720p
Видео: MPEG-4 AVC, 1278x692, 23.976 Кадр/с, 5473 Кбит/сек
Аудио 1: AC3, 2 ch, 256 Кбит/с | DUB
Аудио 2: AC3, 6 ch, 640 Кбит/с | Английский
Субтитры: Английские (SDH)

Скриншоты
Инфо файл

  • x264 [info]: frame I:1287 Avg QP:16.61 size:160283
    x264 [info]: frame P:27719 Avg QP:18.26 size: 70951
    x264 [info]: frame B:119593 Avg QP:20.73 size: 18112
    x264 [info]: consecutive B-frames: 1.3% 0.7% 3.6% 9.4% 16.6% 57.9% 6.6% 2.1% 0.7% 0.3% 0.1% 0.4% 0.2%
Общее
Уникальный идентификатор : 180095534474220573394306189808225603876 (0x877D2365A022AFD2AB1D65F87929D124)
Полное имя : D:Привет семье_2005-WEBRip 720p_KORSAR.mkv
Формат : Matroska
Версия формата : Version 2
Размер файла : 4,69 Гбайт
Продолжительность : 1 ч. 43 м.
Общий поток : 6 499 Кбит/сек
Название фильма : Привет семье_2005-WEBRip 720p_KORSAR
Дата кодирования : UTC 2020-06-18 09:20:14
Программа кодирования : mkvmerge v5.8.0 ('No Sleep / Pillow') built on Sep 2 2012 15:37:04
Библиотека кодирования : libebml v1.2.3 + libmatroska v1.3.0

Видео
Идентификатор : 1
Формат : AVC
Формат/Информация : Advanced Video Codec
Профиль формата : [email protected]
Настройки формата : CABAC / 9 Ref Frames
Параметр CABAC формата : Да
Параметр RefFrames формата : 9 кадров
Идентификатор кодека : V_MPEG4/ISO/AVC
Продолжительность : 1 ч. 43 м.
Битрейт : 5 473 Кбит/сек
Ширина : 1 278 пикселей
Высота : 692 пикселя
Соотношение сторон : 1,85:1
Режим частоты кадров : Постоянный
Частота кадров : 23,976 (24000/1001) кадра/сек
Цветовое пространство : YUV
Субдискретизация насыщенности : 4:2:0
Битовая глубина : 8 бит
Тип развёртки : Прогрессивная
Бит/(Пиксели*Кадры) : 0.258
Размер потока : 3,95 Гбайт (84%)
Библиотека кодирования : x264 core 152 r2851kMod ba24899
Настройки программы : cabac=1 / ref=9 / deblock=1:-2:-2 / analyse=0x3:0x113 / me=umh / subme=11 / psy=1 / fade_compensate=0.00 / psy_rd=1.05:0.10 / mixed_ref=1 / me_range=48 / chroma_me=1 / trellis=2 / 8x8dct=1 / cqm=0 / deadzone=21,11 / fast_pskip=1 / chroma_qp_offset=-3 / threads=2 / lookahead_threads=1 / sliced_threads=0 / nr=0 / decimate=1 / interlaced=0 / bluray_compat=0 / constrained_intra=0 / bframes=12 / b_pyramid=2 / b_adapt=2 / b_bias=0 / direct=1 / weightb=1 / open_gop=0 / weightp=2 / keyint=240 / keyint_min=23 / scenecut=40 / intra_refresh=0 / rc_lookahead=40 / rc=crf / mbtree=0 / crf=17.7000 / qcomp=0.63 / qpmin=0 / qpmax=33 / qpstep=4 / vbv_maxrate=50000 / vbv_bufsize=62500 / crf_max=0.0 / nal_hrd=none / filler=0 / ip_ratio=1.40 / pb_ratio=1.30 / aq=2:0.70
Язык : English
Default : Да
Forced : Нет
Цветовой диапазон : Limited
Основные цвета : BT.709
Характеристики трансфера : BT.709
Коэффициенты матрицы : BT.709
Duration_Source : General_Duration

Аудио #1
Идентификатор : 2
Формат : AC-3
Формат/Информация : Audio Coding 3
Коммерческое название : Dolby Digital
Идентификатор кодека : A_AC3
Продолжительность : 1 ч. 43 м.
Вид битрейта : Постоянный
Битрейт : 256 Кбит/сек
Каналы : 2 канала
Channel layout : L R
Частота : 48,0 КГц
Частота кадров : 31,250 кадров/сек (1536 SPF)
Метод сжатия : С потерями
Задержка видео : 4 с. 250 мс.
Размер потока : 189 Мбайт (4%)
Заголовок : Дубляж
Язык : Russian
Service kind : Complete Main
Default : Да
Forced : Нет
Duration_Source : General_Duration

Аудио #2
Идентификатор : 3
Формат : E-AC-3
Формат/Информация : Enhanced AC-3
Коммерческое название : Dolby Digital Plus
Идентификатор кодека : A_EAC3
Продолжительность : 1 ч. 43 м.
Вид битрейта : Постоянный
Битрейт : 640 Кбит/сек
Каналы : 6 каналов
Channel layout : L R C LFE Ls Rs
Частота : 48,0 КГц
Частота кадров : 31,250 кадров/сек (1536 SPF)
Метод сжатия : С потерями
Размер потока : 473 Мбайт (10%)
Заголовок : Оригинал
Язык : English
Service kind : Complete Main
Default : Нет
Forced : Нет
Duration_Source : General_Duration

Текст
Идентификатор : 4
Формат : UTF-8
Идентификатор кодека : S_TEXT/UTF8
Идентификатор кодека/Информация : UTF-8 Plain Text
Заголовок : SDH
Язык : English
Default : Нет
Forced : Нет
 

Вложения

  • 94,7 KB Просмотры: 0
    Личеров 0
    Сидеров 0
    Файлов 1
    Объем 4,7 GB

Привет!

Мы группа людей которые решили помочь другим в решении их проблем, а так же пользователям с поиском самых свежих и качественных инфопродуктов. За 4 с небольшим месяца мы создали этот форум на который заходят ежедневно тысячи человек и посещаемость постоянно растёт. Мы создали панель лицензирования для защиты PHP скриптов от воровства и SEO панель для мониторинга наших сайтов и выбора верной стратегии их развития. Мы надеемся что то что мы создали пригодится Вам и возможно Вы поможете нам развиваться и совершенствоваться вместе с Вами.

Статистика форума

Темы
406.657
Сообщения
465.113
Пользователи
84.667
Новый пользователь
Red1237

Приложения форума для iOS и Android


У ркн там нет власти ;)
Приватные разговоры
Помощь Пользователи
    Вы не присоединились ни к одной комнате.