За последнюю неделю опубликовано 81 новых материалов.
Инструкция новичку Путеводитель по форуму Прокси для Telegram Показать подсказки , это бомба!

Скачать Притворщики (2016) WEB-DL 1080p от MediaClub бесплатно через торрент

  • Поучаствуй (в качестве покупателя) в любых пяти совместных покупках (кроме завершённых и "Моментальных") и получи группу "Новичок" навсегда -> ссылка на раздел
  • Получай до 480 рублей за каждого приглашенного пользователя!
    представляем Вам очередное расширение партнерской программы, подробности описаны тут -> ссылка
  • 90% материалов доступно к скачиванию после простой регистрации!
    Если же ты хочешь скачивать материалы без требования оставлять отзывы то получи группу "Новичок", 10 способов повышения описаны тут -> ссылка
  • К сожалению количество битых ссылок растет и мы уже не можем их оперативно восстанавливать поэтому просим помощи у каждого нашего пользователя.
    С сегодняшнего дня, за каждую восстановленную ссылку мы заплатим Вам.
    Подробнее тут -> ссылка
  • Перенесем твои заслуги с другого ресурса!
    Мы понимаем как сложно прокачивать аккаунты на форумах, вроде раскачал аккаунт, а тут появляется ресурс в 100 раз круче но тоже с системой прокачки и снова качать аккаунт...
    Предлагаем вам перенести Ваши заслуги на другом подобном ресурсе к нам.
    Подробности описаны тут -> ссылка
  • Вы можете получать по 2.5% с каждой покупки и продажи на маркете! Подробности в теме Партнёрская программа
Если Вы не хотите скачивать, Вы всегда можетепосмотретьонлайн, просто нажмите кнопку ниже :

Открыть плеер

Torrent_Bot

Торрент-Бот
Бот форума
4 Окт 2016
104
152
20
Информация о фильме
Название: Притворщики
Год выхода: 2016
Жанр: Комедия
Режиссер: Ольга Ланд
В ролях: Анастасия Евграфова, Никита Юранов, Ольга Прокофьева, Александр Андриенко, Владимир Фоков, Алексей Якубов, Михаил Филиппов, Юлия Сулес, Вячеслав Гугиев, Татьяна Кулинич

О фильме:
Михаил без памяти влюбился в Юлю. Идиллия длилась несколько месяцев, а "час расплаты" наступил во время знакомства с родителями девушки. Представительный генерал Макар Ильич и его жена Вера Васильевна, женщина строгих правил, предпочитают видеть в зятьях достойного мужчину из хорошей семьи. Когда бравый генерал изъявляет желание познакомиться с родителями молодого человека, Миша, мама которого давно умерла, а отец мотает срок в провинциальной колонии, нанимает пару профессиональных актёров, которые должны сыграть его родителей. Знакомство "притворщиков" с семьёй невесты прошло замечательно. Свадьба слажена. Однако накануне торжества из тюрьмы выходит настоящий отец Миши – Юра-Фарт...



Страна: Россия
Студия: ВВП Альянс, Марс Медиа
Продолжительность: 2 x ~ 00:45:30
Перевод: Не требуется

Файл
Кодек: h.264
Качество: WEB-DL 1080p
Видео: MPEG-4 AVC, ~ 5120 Кбит/с, 1920x1080
Звук: Русский (AC3, 2 ch, 192 Кбит/с)
Субтитры: Нет

Семпл

MI
General
Unique ID : 230284740637900199787470884795833371968 (0xAD3F3A4F54C9646FA369D5E60C93CD40)
Complete name : D:uTorrentPritvorstsiki.2016.WEB-DL.1080p.MediaClubPritvorstsiki.(01.iz.02).2016.WEB-DL.1080p.MediaClub.mkv
Format : Matroska
Format version : Version 4 / Version 2
File size : 1.69 GiB
Duration : 45 min 38 s
Overall bit rate : 5 300 kb/s
Encoded date : UTC 2017-01-05 10:16:23
Writing application : mkvmerge v9.7.1 ('Pandemonium') 64bit
Writing library : libebml v1.3.4 + libmatroska v1.4.5

Video
ID : 1
Format : AVC
Format/Info : Advanced Video Codec
Format profile : High@L4
Format settings, CABAC : Yes
Format settings, ReFrames : 4 frames
Codec ID : V_MPEG4/ISO/AVC
Duration : 45 min 38 s
Bit rate : 5 120 kb/s
Width : 1 920 pixels
Height : 1 080 pixels
Display aspect ratio : 16:9
Frame rate mode : Constant
Frame rate : 25.000 FPS
Color space : YUV
Chroma subsampling : 4:2:0
Bit depth : 8 bits
Scan type : Progressive
Bits/(Pixel*Frame) : 0.099
Stream size : 1.63 GiB (96%)
Title : WEB-DL by Silverok
Writing library : x264 core 142
Encoding settings : cabac=1 / ref=3 / deblock=1:0:0 / analyse=0x3:0x113 / me=hex / subme=7 / psy=1 / psy_rd=1.00:0.00 / mixed_ref=1 / me_range=16 / chroma_me=1 / trellis=1 / 8x8dct=1 / cqm=0 / deadzone=21,11 / fast_pskip=1 / chroma_qp_offset=-2 / threads=36 / lookahead_threads=6 / sliced_threads=0 / nr=0 / decimate=1 / interlaced=0 / bluray_compat=0 / constrained_intra=0 / bframes=6 / b_pyramid=2 / b_adapt=1 / b_bias=0 / direct=1 / weightb=1 / open_gop=0 / weightp=2 / keyint=200 / keyint_min=20 / scenecut=0 / intra_refresh=0 / rc_lookahead=40 / rc=2pass / mbtree=1 / bitrate=5120 / ratetol=1.0 / qcomp=0.60 / qpmin=0 / qpmax=69 / qpstep=4 / cplxblur=20.0 / qblur=0.5 / vbv_maxrate=7680 / vbv_bufsize=20480 / nal_hrd=none / filler=0 / ip_ratio=1.40 / aq=1:1.00
Default : Yes
Forced : No

Audio
ID : 2
Format : AC-3
Format/Info : Audio Coding 3
Mode extension : CM (complete main)
Format settings, Endianness : Big
Codec ID : A_AC3
Duration : 45 min 38 s
Bit rate mode : Constant
Bit rate : 192 kb/s
Channel(s) : 2 channels
Channel positions : Front: L R
Sampling rate : 48.0 kHz
Frame rate : 31.250 FPS (1536 spf)
Compression mode : Lossy
Stream size : 62.7 MiB (4%)
Language : Russian
Default : Yes
Forced : No
Скриншоты

Релиз от: | Silverok
 

Вложения

  • 18,1 KB Просмотры: 0
    Личеров 0
    Сидеров 0
    Файлов 2
    Объем 3,4 GB

Привет!

Мы группа людей которые решили помочь другим в решении их проблем, а так же пользователям с поиском самых свежих и качественных инфопродуктов. За 4 с небольшим месяца мы создали этот форум на который заходят ежедневно тысячи человек и посещаемость постоянно растёт. Мы создали панель лицензирования для защиты PHP скриптов от воровства и SEO панель для мониторинга наших сайтов и выбора верной стратегии их развития. Мы надеемся что то что мы создали пригодится Вам и возможно Вы поможете нам развиваться и совершенствоваться вместе с Вами.

Статистика форума

Темы
404.542
Сообщения
461.456
Пользователи
80.099
Новый пользователь
анатолий1236

Приложения форума для iOS и Android


У ркн там нет власти ;)
Приватные разговоры
Помощь Пользователи
    Вы не присоединились ни к одной комнате.