За последнюю неделю опубликовано 63 новых материалов.
Инструкция новичку Путеводитель по форуму Прокси для Telegram Показать подсказки , это бомба!

Скачать Притчи 4 (2013) DVDRip-AVC от KORSAR бесплатно через торрент

  • Поучаствуй (в качестве покупателя) в любых пяти совместных покупках (кроме завершённых и "Моментальных") и получи группу "Новичок" навсегда -> ссылка на раздел
  • Получай до 480 рублей за каждого приглашенного пользователя!
    представляем Вам очередное расширение партнерской программы, подробности описаны тут -> ссылка
  • 90% материалов доступно к скачиванию после простой регистрации!
    Если же ты хочешь скачивать материалы без требования оставлять отзывы то получи группу "Новичок", 10 способов повышения описаны тут -> ссылка
  • К сожалению количество битых ссылок растет и мы уже не можем их оперативно восстанавливать поэтому просим помощи у каждого нашего пользователя.
    С сегодняшнего дня, за каждую восстановленную ссылку мы заплатим Вам.
    Подробнее тут -> ссылка
  • Перенесем твои заслуги с другого ресурса!
    Мы понимаем как сложно прокачивать аккаунты на форумах, вроде раскачал аккаунт, а тут появляется ресурс в 100 раз круче но тоже с системой прокачки и снова качать аккаунт...
    Предлагаем вам перенести Ваши заслуги на другом подобном ресурсе к нам.
    Подробности описаны тут -> ссылка
  • Вы можете получать по 2.5% с каждой покупки и продажи на маркете! Подробности в теме Партнёрская программа
Если Вы не хотите скачивать, Вы всегда можетепосмотретьонлайн, просто нажмите кнопку ниже :

Открыть плеер

Torrent_Bot

Торрент-Бот
Бот форума
4 Окт 2016
92
160
20


Информация о фильме
Название: Притчи 4
Год выхода: 2013
Жанр:Семейный, православие
Режиссер: Виталий Любецкий
В ролях: Александр Ткаченок, Михаил Есьман, Алексей Яровенко, Александр Одинец, Светлана Бень, Олег Ткачёв, Геннадий Готовчиц, Александр Тиханович

О фильме: Помните ли вы героев прежних «Притч» - мудрого духовника и его непутевого послушника? Жизнь не стоит на месте — в монастыре, где они Богу служат, новые корпуса растут, а монахи и прихожане в трудах да молитвах духом возрастают, друг друга немощи носить научаются. Первая притча «Лествица» про молодого и амбициозного бизнесмена. Трудно богатому войти в Царство Божие... Вот и Сергей Сергеич хоть уверовал в Бога, да уж слишком на себя понадеялся. Тут и ревность не по разуму, и поспешность в подвигах духовных, и фантазии нелепые. Так что есть чему улыбнуться и над чем задуматься... Вторая история про послушника. Одолели бедного злые мысли и осуждение. Пока исповедовался, душа, как чистый родничок была, а как про силу исповеди запамятовал — словно смрадное болото стала. Таких дров наломал... Слава Богу, духовник рядом — он и помолится, и слово доброе скажет, и епитимью вовремя наложит. Исправился наш герой и даже умудрился двух крепко обиженных друг на друга людей помирить. Потому третья притча «Мудрый послушник» называется.



Выпущено: Беларусь, Свято-Елисаветинский монастырь
Продолжительность: 01:14:16
Перевод: не требуется

Файл
Кодек: х264
Качество: DVDRip-AVC
Видео: MPEG-4 AVC, [email protected], 25 fps, 2600 Кбит/с
Звук: AC3, 2 ch, 384 Кбит/с

Скриншоты
Инфо файл
x264 [info]: frame I:688 Avg QP:16.06 size: 70613
x264 [info]: frame P:23362 Avg QP:18.13 size: 29732
x264 [info]: frame B:87363 Avg QP:19.63 size: 8078
==================================================================
Общее
Уникальный идентификатор : 253616032519242760074237147798508630174 (0xBECCABCFDDF7D0158FC9EC4A6947709E)
Полное имя : D:В И Д Е ОФИЛЬМЫПритчи 4 (2013).mkv
Формат : Matroska
Версия формата : Version 2
Размер файла : 1,55 Гбайт
Продолжительность : 1 ч. 14 м.
Общий поток : 2987 Кбит/сек
Дата кодирования : UTC 2016-12-11 04:31:08
Программа кодирования : mkvmerge v7.8.0 ('River Man') 32bit built on Apr 3 2015 12:11:22
Библиотека кодирования : libebml v1.3.1 + libmatroska v1.4.2

Видео
Идентификатор : 1
Формат : AVC
Формат/Информация : Advanced Video Codec
Профиль формата : [email protected]
Параметр CABAC формата : Да
Параметр ReFrames формата : 12 кадров
Идентификатор кодека : V_MPEG4/ISO/AVC
Продолжительность : 1 ч. 14 м.
Битрейт : 2600 Кбит/сек
Ширина : 700 пикселей
Высота : 576 пикселей
Соотношение сторон : 1,727
Соотношение сторон в оригинале : 1,728
Режим частоты кадров : Постоянный
Частота кадров : 25,000 кадров/сек
Цветовое пространство : YUV
Субдискретизация насыщенности : 4:2:0
Битовая глубина : 8 бит
Тип развёртки : Прогрессивная
Бит/(Пиксели*Кадры) : 0.258
Размер потока : 1,32 Гбайт (85%)
Библиотека кодирования : x264 core 146 r2538 121396c
Настройки программы : cabac=1 / ref=12 / deblock=1:-2:-2 / analyse=0x3:0x133 / me=umh / subme=10 / psy=1 / psy_rd=1.05:0.10 / mixed_ref=1 / me_range=32 / chroma_me=1 / trellis=2 / 8x8dct=1 / cqm=0 / deadzone=21,11 / fast_pskip=0 / chroma_qp_offset=-3 / threads=3 / lookahead_threads=1 / sliced_threads=0 / nr=0 / decimate=0 / interlaced=0 / bluray_compat=0 / constrained_intra=0 / bframes=16 / b_pyramid=2 / b_adapt=2 / b_bias=0 / direct=3 / weightb=1 / open_gop=0 / weightp=2 / keyint=250 / keyint_min=25 / scenecut=40 / intra_refresh=0 / rc=2pass / mbtree=0 / bitrate=2600 / ratetol=1.0 / qcomp=0.63 / qpmin=0 / qpmax=69 / qpstep=4 / cplxblur=20.0 / qblur=0.5 / ip_ratio=1.25 / pb_ratio=1.30 / aq=1:1.00
Язык : Russian
Default : Да
Forced : Нет
Цветовой диапазон : Limited
Основные цвета : BT.601 PAL
Характеристики трансфера : BT.470 System B, BT.470 System G
Коэффициенты матрицы : BT.601

Аудио
Идентификатор : 2
Формат : AC-3
Формат/Информация : Audio Coding 3
Параметр Endianness формата : Big
Идентификатор кодека : A_AC3
Продолжительность : 1 ч. 14 м.
Вид битрейта : Постоянный
Битрейт : 384 Кбит/сек
Каналы : 2 канала
Расположение каналов : Front: L R
Частота : 48,0 КГц
Частота кадров : 31,250 кадров/сек (1536 spf)
Битовая глубина : 16 бит
Метод сжатия : С потерями
Размер потока : 204 Мбайт (13%)
Язык : Russian
Default : Да
Forced : Нет

Релиз от:
 

Вложения

  • 16,4 KB Просмотры: 0
    Личеров 0
    Сидеров 0
    Файлов 1
    Объем 1,5 GB

Привет!

Мы группа людей которые решили помочь другим в решении их проблем, а так же пользователям с поиском самых свежих и качественных инфопродуктов. За 4 с небольшим месяца мы создали этот форум на который заходят ежедневно тысячи человек и посещаемость постоянно растёт. Мы создали панель лицензирования для защиты PHP скриптов от воровства и SEO панель для мониторинга наших сайтов и выбора верной стратегии их развития. Мы надеемся что то что мы создали пригодится Вам и возможно Вы поможете нам развиваться и совершенствоваться вместе с Вами.

Статистика форума

Темы
406.656
Сообщения
465.107
Пользователи
84.677
Новый пользователь
maxim_nik33

Приложения форума для iOS и Android


У ркн там нет власти ;)
Приватные разговоры
Помощь Пользователи
    Вы не присоединились ни к одной комнате.