За последнюю неделю опубликовано 62 новых материалов.
Инструкция новичку Путеводитель по форуму Прокси для Telegram Показать подсказки , это бомба!

Скачать Притчи 2 (2011) DVDRip-AVC от KORSAR бесплатно через торрент

  • Поучаствуй (в качестве покупателя) в любых пяти совместных покупках (кроме завершённых и "Моментальных") и получи группу "Новичок" навсегда -> ссылка на раздел
  • Получай до 480 рублей за каждого приглашенного пользователя!
    представляем Вам очередное расширение партнерской программы, подробности описаны тут -> ссылка
  • 90% материалов доступно к скачиванию после простой регистрации!
    Если же ты хочешь скачивать материалы без требования оставлять отзывы то получи группу "Новичок", 10 способов повышения описаны тут -> ссылка
  • К сожалению количество битых ссылок растет и мы уже не можем их оперативно восстанавливать поэтому просим помощи у каждого нашего пользователя.
    С сегодняшнего дня, за каждую восстановленную ссылку мы заплатим Вам.
    Подробнее тут -> ссылка
  • Перенесем твои заслуги с другого ресурса!
    Мы понимаем как сложно прокачивать аккаунты на форумах, вроде раскачал аккаунт, а тут появляется ресурс в 100 раз круче но тоже с системой прокачки и снова качать аккаунт...
    Предлагаем вам перенести Ваши заслуги на другом подобном ресурсе к нам.
    Подробности описаны тут -> ссылка
  • Вы можете получать по 2.5% с каждой покупки и продажи на маркете! Подробности в теме Партнёрская программа
Если Вы не хотите скачивать, Вы всегда можетепосмотретьонлайн, просто нажмите кнопку ниже :

Открыть плеер

Torrent_Bot

Торрент-Бот
Бот форума
4 Окт 2016
92
160
20


Информация о фильме
Название: Притчи 2
Год выхода: 2011
Жанр:Семейный, православие
Режиссер: Виталий Любецкий
В ролях: Александр Ткаченок, Михаил Есьман, Елена Сидорова, Сергей Новицкий, Владимир Матросов, Виктор Богушевич, Николай Рябычин, Наталья Волчек, Максим Пониматченко, Владимир Алымов

О фильме: Эта лента — продолжение фильма «Притчи», выпущенного в 2010 году. И снова три рассказа, три повода с доброй улыбкой понаблюдать за старыми знакомыми и задуматься: в чем они правы, а в чем нет. Герой первой истории «Лампадка» — послушник, тот самый, что на кладбище ходил покойников ругать. Снова он оплошал. «В чем кого осудишь — в том и сам побудешь», — говорит старец и в назидание дает ему новое послушание: пройти вокруг деревни с лампадкой в руках, не пролив ни капли масла и не затушив огня... В новелле «Рубашка» — Мария, которая Спасителя в гости ждала, проходит через новые искушения. Трудно ей одной хозяйство дачное вести, а еще трудней по-христиански людей прощать. Но Мария не унывает — добром платит за зло, молится и ждет чуда. И оно происходит... Жили на одном острове три старца-рыбака, — повествует третья история «Трое Вас — трое нас». Однажды проплывал мимо на корабле известный и почитаемый всеми архимандрит. Услыхав, что живут на острове святые чудотворцы, не поверил и решил сам все увидеть. А когда узнал, что рыбачки даже «Отче наш» не знают, стал их учить правильно молиться. Да вот только кто кого и чему научил — сами увидите...



Выпущено: Беларусь, Свято-Елисаветинский монастырь
Продолжительность: 01:01:29
Перевод: не требуется

Файл
Кодек: х264
Качество: DVDRip-AVC
Видео: MPEG-4 AVC, [email protected], 25 fps, 2300 Кбит/с
Звук: AC3, 2 ch, 256 Кбит/с

Скриншоты
Инфо файл
x264 [info]: frame I:623 Avg QP:16.37 size: 69920
x264 [info]: frame P:20359 Avg QP:18.35 size: 25597
x264 [info]: frame B:71250 Avg QP:19.67 size: 6978
==================================================================
Общее
Уникальный идентификатор : 211238102301256110112676456144946901474 (0x9EEAFA89939C27728CFD18F5CE30B1E2)
Полное имя : D:В И Д Е ОФИЛЬМЫПритчи 2 (2011).mkv
Формат : Matroska
Версия формата : Version 2
Размер файла : 1,10 Гбайт
Продолжительность : 1 ч. 1 м.
Общий поток : 2560 Кбит/сек
Дата кодирования : UTC 2016-12-08 14:01:27
Программа кодирования : mkvmerge v7.8.0 ('River Man') 32bit built on Apr 3 2015 12:11:22
Библиотека кодирования : libebml v1.3.1 + libmatroska v1.4.2

Видео
Идентификатор : 1
Формат : AVC
Формат/Информация : Advanced Video Codec
Профиль формата : [email protected]
Параметр CABAC формата : Да
Параметр ReFrames формата : 12 кадров
Идентификатор кодека : V_MPEG4/ISO/AVC
Продолжительность : 1 ч. 1 м.
Битрейт : 2300 Кбит/сек
Ширина : 720 пикселей
Высота : 444 пикселя
Соотношение сторон : 1,730
Режим частоты кадров : Постоянный
Частота кадров : 25,000 кадров/сек
Цветовое пространство : YUV
Субдискретизация насыщенности : 4:2:0
Битовая глубина : 8 бит
Тип развёртки : Прогрессивная
Бит/(Пиксели*Кадры) : 0.288
Размер потока : 991 Мбайт (88%)
Библиотека кодирования : x264 core 146 r2538 121396c
Настройки программы : cabac=1 / ref=12 / deblock=1:-2:-2 / analyse=0x3:0x133 / me=umh / subme=10 / psy=1 / psy_rd=1.05:0.10 / mixed_ref=1 / me_range=32 / chroma_me=1 / trellis=2 / 8x8dct=1 / cqm=0 / deadzone=21,11 / fast_pskip=0 / chroma_qp_offset=-3 / threads=3 / lookahead_threads=1 / sliced_threads=0 / nr=0 / decimate=0 / interlaced=0 / bluray_compat=0 / constrained_intra=0 / bframes=16 / b_pyramid=2 / b_adapt=2 / b_bias=0 / direct=3 / weightb=1 / open_gop=0 / weightp=2 / keyint=250 / keyint_min=25 / scenecut=40 / intra_refresh=0 / rc=2pass / mbtree=0 / bitrate=2300 / ratetol=1.0 / qcomp=0.63 / qpmin=0 / qpmax=69 / qpstep=4 / cplxblur=20.0 / qblur=0.5 / ip_ratio=1.25 / pb_ratio=1.30 / aq=1:1.00
Язык : Russian
Default : Да
Forced : Нет
Цветовой диапазон : Limited
Основные цвета : BT.601 PAL
Характеристики трансфера : BT.470 System B, BT.470 System G
Коэффициенты матрицы : BT.601

Аудио
Идентификатор : 2
Формат : AC-3
Формат/Информация : Audio Coding 3
Параметр Endianness формата : Big
Идентификатор кодека : A_AC3
Продолжительность : 1 ч. 1 м.
Вид битрейта : Постоянный
Битрейт : 256 Кбит/сек
Каналы : 2 канала
Расположение каналов : Front: L R
Частота : 48,0 КГц
Частота кадров : 31,250 кадров/сек (1536 spf)
Битовая глубина : 16 бит
Метод сжатия : С потерями
Размер потока : 113 Мбайт (10%)
Язык : Russian
Default : Да
Forced : Нет

Релиз от:
 

Вложения

  • 11,9 KB Просмотры: 0
    Личеров 0
    Сидеров 0
    Файлов 1
    Объем 1,1 GB

Привет!

Мы группа людей которые решили помочь другим в решении их проблем, а так же пользователям с поиском самых свежих и качественных инфопродуктов. За 4 с небольшим месяца мы создали этот форум на который заходят ежедневно тысячи человек и посещаемость постоянно растёт. Мы создали панель лицензирования для защиты PHP скриптов от воровства и SEO панель для мониторинга наших сайтов и выбора верной стратегии их развития. Мы надеемся что то что мы создали пригодится Вам и возможно Вы поможете нам развиваться и совершенствоваться вместе с Вами.

Статистика форума

Темы
406.657
Сообщения
465.114
Пользователи
84.668
Новый пользователь
Helga2134

Приложения форума для iOS и Android


У ркн там нет власти ;)
Приватные разговоры
Помощь Пользователи
    Вы не присоединились ни к одной комнате.