За последнюю неделю опубликовано 59 новых материалов.
Инструкция новичку Путеводитель по форуму Прокси для Telegram Показать подсказки , это бомба!

Скачать Прирожденные убийцы / Natural Born Killers (1994) BDRip-HEVC 1080p от HEVC-CLUB | P, A бесплатно через торрент

  • Поучаствуй (в качестве покупателя) в любых пяти совместных покупках (кроме завершённых и "Моментальных") и получи группу "Новичок" навсегда -> ссылка на раздел
  • Получай до 480 рублей за каждого приглашенного пользователя!
    представляем Вам очередное расширение партнерской программы, подробности описаны тут -> ссылка
  • 90% материалов доступно к скачиванию после простой регистрации!
    Если же ты хочешь скачивать материалы без требования оставлять отзывы то получи группу "Новичок", 10 способов повышения описаны тут -> ссылка
  • К сожалению количество битых ссылок растет и мы уже не можем их оперативно восстанавливать поэтому просим помощи у каждого нашего пользователя.
    С сегодняшнего дня, за каждую восстановленную ссылку мы заплатим Вам.
    Подробнее тут -> ссылка
  • Перенесем твои заслуги с другого ресурса!
    Мы понимаем как сложно прокачивать аккаунты на форумах, вроде раскачал аккаунт, а тут появляется ресурс в 100 раз круче но тоже с системой прокачки и снова качать аккаунт...
    Предлагаем вам перенести Ваши заслуги на другом подобном ресурсе к нам.
    Подробности описаны тут -> ссылка
  • Вы можете получать по 2.5% с каждой покупки и продажи на маркете! Подробности в теме Партнёрская программа
Если Вы не хотите скачивать, Вы всегда можетепосмотретьонлайн, просто нажмите кнопку ниже :

Открыть плеер

Torrent_Bot

Торрент-Бот
Бот форума
4 Окт 2016
92
163
20



Год выхода: 1994
Страна / Студия: США / Warner Bros., Regency Enterprises, Alcor Films
Жанр:боевик, драма, криминал
Продолжительность: 01:58:57
Перевод: Профессиональный (многоголосый, закадровый), авторский (одноголосый, закадровый), профессиональный (двухголосый, закадровый) (UKR)

Режиссер: Оливер Стоун
В ролях: Вуди Харрельсон, Джульетт Льюис, Томми Ли Джонс, Роберт Дауни-младший, Том Сайзмор, Родни Дэнжерфилд, Расселл Минз, Прюитт Тэйлор Винс, Джо Грифази, Эди МакКлерг

Описание: Пара молодых влюблённых, Меллори и Микки, словно подражая легендарным Бонни и Клайду, колесит по Америке и убивает всех, кто попадается на пути. В конце концов парочку хватают и сажают в тюрьму. Однако череда нелепых и трагических совпадений снова позволяет прирождённым убийцам убивать дальше.

Качество: BDRip 1080p
Видео: HEVC/H.265, 1908x1080, ~11,7 Мbps
Аудио 1: AC3, 6 ch, 640 Kbps - Русский, MVO (Тивионика)
Аудио 3: AC3, 6 ch, 384 Kbps - Русский, MVO (Гемини)
Аудио 4: AC3, 6 ch, 384 Kbps - Русский, AVO (Гаврилов)
Аудио 5: AC3, 6 ch, 384 Kbps - Украинский, DVO (Kino)
Аудио 6: DTS, 6 ch, 1509 Kbps - Английский
Аудио 7: AC3, 2 ch, 192 Kbps - Английский (Commentary by Director)
Субтитры: Русские, английские



Релиз от: -Star-Lord-

Mediainfo
Общее
Уникальный идентификатор : 258677248454363331780894004169498098056 (0xC29B6D06033BFDFAC5AB09BDCF36F988)
Полное имя : R:Natural Born Killers (1994) BDRip 1080p H.265 [3xRUS_UKR_ENG] [HEVC-CLUB].mkv
Формат : Matroska
Версия формата : Version 4 / Version 2
Размер файла : 12,7 Гбайт
Продолжительность : 1 ч. 58 м.
Общий поток : 15,2 Мбит/сек
Название фильма : Прирождённые убийцы / Природжені вбивці / Natural Born Killers (1994)
Дата кодирования : UTC 2020-07-10 20:51:30
Программа кодирования : mkvmerge v20.0.0 ('I Am The Sun') 64-bit
Библиотека кодирования : libebml v1.3.5 + libmatroska v1.4.8
Обложка : Yes
Attachments : Cover.jpg

Видео
Идентификатор : 1
Формат : HEVC
Формат/Информация : High Efficiency Video Coding
Профиль формата : Main [email protected]@High
Идентификатор кодека : V_MPEGH/ISO/HEVC
Продолжительность : 1 ч. 58 м.
Битрейт : 11,7 Мбит/сек
Ширина : 1908 пикселей
Высота : 1080 пикселей
Соотношение сторон : 16:9
Режим частоты кадров : Постоянный
Частота кадров : 23,976 (24000/1001) кадра/сек
Цветовое пространство : YUV
Субдискретизация насыщенности : 4:2:0
Битовая глубина : 10 бит
Бит/(Пиксели*Кадры) : 0.238
Размер потока : 9,75 Гбайт (77%)
Заголовок : Прирождённые убийцы / Природжені вбивці / Natural Born Killers (1994)
Библиотека кодирования : x265 3.2+5-354901970679:[Windows][clang 8.0.1][64 bit] 10bit
Настройки программы : cpuid=1111039 / frame-threads=13 / numa-pools=12 / wpp / no-pmode / no-pme / no-psnr / no-ssim / log-level=3 / input-csp=1 / input-res=1908x1080 / interlace=0 / total-frames=0 / level-idc=51 / high-tier=1 / uhd-bd=0 / ref=5 / allow-non-conformance / no-repeat-headers / annexb / no-aud / no-hrd / info / hash=0 / no-temporal-layers / open-gop / min-keyint=24 / keyint=240 / gop-lookahead=0 / bframes=11 / b-adapt=2 / b-pyramid / bframe-bias=0 / rc-lookahead=60 / lookahead-slices=6 / scenecut=40 / radl=0 / no-splice / no-intra-refresh / ctu=64 / min-cu-size=8 / rect / amp / max-tu-size=32 / tu-inter-depth=4 / tu-intra-depth=4 / limit-tu=0 / rdoq-level=2 / dynamic-rd=0.00 / no-ssim-rd / signhide / no-tskip / nr-intra=0 / nr-inter=0 / no-constrained-intra / no-strong-intra-smoothing / max-merge=3 / limit-refs=1 / no-limit-modes / me=3 / subme=7 / merange=57 / temporal-mvp / no-frame-dup / no-hme / weightp / weightb / no-analyze-src-pics / deblock=-3:-3 / no-sao / no-sao-non-deblock / rd=6 / selective-sao=0 / early-skip / rskip / no-fast-intra / no-tskip-fast / no-cu-lossless / b-intra / no-splitrd-skip / rdpenalty=0 / psy-rd=2.00 / psy-rdoq=1.00 / no-rd-refine / no-lossless / cbqpoffs=0 / crqpoffs=0 / rc=crf / crf=20.0 / qcomp=0.65 / qpstep=4 / stats-write=0 / stats-read=0 / vbv-maxrate=50000 / vbv-bufsize=50000 / vbv-init=0.9 / crf-max=30.0 / crf-min=0.0 / ipratio=1.40 / pbratio=1.30 / aq-mode=1 / aq-strength=1.00 / no-cutree / zone-count=0 / no-strict-cbr / qg-size=32 / no-rc-grain / qpmax=69 / qpmin=0 / no-const-vbv / sar=1 / overscan=0 / videoformat=5 / range=0 / colorprim=1 / transfer=1 / colormatrix=1 / chromaloc=0 / display-window=0 / cll=0,0 / min-luma=0 / max-luma=1023 / log2-max-poc-lsb=8 / vui-timing-info / vui-hrd-info / slices=1 / no-opt-qp-pps / no-opt-ref-list-length-pps / no-multi-pass-opt-rps / scenecut-bias=0.05 / no-opt-cu-delta-qp / no-aq-motion / no-hdr / no-hdr-opt / no-dhdr10-opt / no-idr-recovery-sei / analysis-reuse-level=5 / scale-factor=0 / refine-intra=0 / refine-inter=0 / refine-mv=1 / refine-ctu-distortion=0 / no-limit-sao / ctu-info=0 / no-lowpass-dct / refine-analysis-type=0 / copy-pic=1 / max-ausize-factor=1.0 / no-dynamic-refine / no-single-sei / no-hevc-aq / no-svt / no-field / qp-adaptation-range=1.00
Язык : English
Default : Да
Forced : Нет
Цветовой диапазон : Limited
Основные цвета : BT.709
Характеристики трансфера : BT.709
Коэффициенты матрицы : BT.709

Аудио #1
Идентификатор : 2
Формат : AC-3
Формат/Информация : Audio Coding 3
Идентификатор кодека : A_AC3
Продолжительность : 1 ч. 58 м.
Вид битрейта : Постоянный
Битрейт : 640 Кбит/сек
Каналы : 6 каналов
Расположение каналов : Front: L C R, Side: L R, LFE
Частота : 48,0 КГц
Частота кадров : 31,250 кадров/сек (1536 SPF)
Битовая глубина : 16 бит
Метод сжатия : С потерями
Размер потока : 545 Мбайт (4%)
Заголовок : AC3 / 5.1 Ch / 640 kbps / MVO / Тивионика
Язык : Russian
ServiceKind/Strin : Complete Main
Default : Да
Forced : Да

Аудио #2
Идентификатор : 3
Формат : AC-3
Формат/Информация : Audio Coding 3
Идентификатор кодека : A_AC3
Продолжительность : 1 ч. 58 м.
Вид битрейта : Постоянный
Битрейт : 384 Кбит/сек
Каналы : 6 каналов
Расположение каналов : Front: L C R, Side: L R, LFE
Частота : 48,0 КГц
Частота кадров : 31,250 кадров/сек (1536 SPF)
Битовая глубина : 16 бит
Метод сжатия : С потерями
Размер потока : 327 Мбайт (3%)
Заголовок : AC3 / 5.1 Ch / 384 kbps / MVO / Гемини
Язык : Russian
ServiceKind/Strin : Complete Main
Default : Нет
Forced : Нет

Аудио #3
Идентификатор : 4
Формат : AC-3
Формат/Информация : Audio Coding 3
Идентификатор кодека : A_AC3
Продолжительность : 1 ч. 58 м.
Вид битрейта : Постоянный
Битрейт : 384 Кбит/сек
Каналы : 6 каналов
Расположение каналов : Front: L C R, Side: L R, LFE
Частота : 48,0 КГц
Частота кадров : 31,250 кадров/сек (1536 SPF)
Битовая глубина : 16 бит
Метод сжатия : С потерями
Размер потока : 327 Мбайт (3%)
Заголовок : AC3 / 5.1 Ch / 384 kbps / AVO / Андрей Гаврилов
Язык : Russian
ServiceKind/Strin : Complete Main
Default : Нет
Forced : Нет

Аудио #4
Идентификатор : 5
Формат : AC-3
Формат/Информация : Audio Coding 3
Идентификатор кодека : A_AC3
Продолжительность : 1 ч. 58 м.
Вид битрейта : Постоянный
Битрейт : 384 Кбит/сек
Каналы : 6 каналов
Расположение каналов : Front: L C R, Side: L R, LFE
Частота : 48,0 КГц
Частота кадров : 31,250 кадров/сек (1536 SPF)
Битовая глубина : 16 бит
Метод сжатия : С потерями
Размер потока : 327 Мбайт (3%)
Заголовок : AC3 / 5.1 Ch / 384 kbps / DVO / Kino
Язык : Ukrainian
ServiceKind/Strin : Complete Main
Default : Нет
Forced : Нет

Аудио #5
Идентификатор : 6
Формат : DTS
Формат/Информация : Digital Theater Systems
Идентификатор кодека : A_DTS
Продолжительность : 1 ч. 58 м.
Вид битрейта : Постоянный
Битрейт : 1509 Кбит/сек
Каналы : 6 каналов
Расположение каналов : Front: L C R, Side: L R, LFE
Частота : 48,0 КГц
Частота кадров : 93,750 кадра/сек (512 SPF)
Битовая глубина : 16 бит
Метод сжатия : С потерями
Размер потока : 1,25 Гбайт (10%)
Заголовок : DTS / 5.1 Ch / 1509 kbps / Original
Язык : English
Default : Нет
Forced : Нет

Аудио #6
Идентификатор : 7
Формат : AC-3
Формат/Информация : Audio Coding 3
Идентификатор кодека : A_AC3
Продолжительность : 1 ч. 58 м.
Вид битрейта : Постоянный
Битрейт : 192 Кбит/сек
Каналы : 2 канала
Расположение каналов : Front: L R
Частота : 48,0 КГц
Частота кадров : 31,250 кадров/сек (1536 SPF)
Битовая глубина : 16 бит
Метод сжатия : С потерями
Размер потока : 163 Мбайт (1%)
Заголовок : AC3 / 2.0 Ch / 192 kbps / Original / Commentary by Director
Язык : English
ServiceKind/Strin : Complete Main
Default : Нет
Forced : Нет

Текст #1
Идентификатор : 8
Формат : UTF-8
Идентификатор кодека : S_TEXT/UTF8
Идентификатор кодека/Информация : UTF-8 Plain Text
Продолжительность : 1 ч. 50 м.
Битрейт : 101 бит/сек
ElementCount : 1339
Размер потока : 82,8 Кбайт (0%)
Заголовок : Full
Язык : Russian
Default : Нет
Forced : Нет

Текст #2
Идентификатор : 9
Формат : UTF-8
Идентификатор кодека : S_TEXT/UTF8
Идентификатор кодека/Информация : UTF-8 Plain Text
Продолжительность : 1 ч. 51 м.
Битрейт : 57 бит/сек
ElementCount : 1481
Размер потока : 47,1 Кбайт (0%)
Заголовок : Full
Язык : English
Default : Нет
Forced : Нет

Меню
00:00:00.000 : en:Opening: Cafe Carnage
00:06:49.075 : en:Floorin' Through the Credits
00:08:32.678 : en:I Love Mallory
00:14:13.185 : en:4 Trail Of A Twister
00:17:18.203 : en:Taking Care of Dad and Mom
00:19:20.826 : en:Free
00:20:11.376 : en:Til' Death Do Us Part
00:23:04.216 : en:The American Maniacs Version
00:26:07.232 : en:people on the Street
00:27:04.122 : en:Thinking About
00:31:19.544 : en:Too Eager
00:35:10.775 : en:Meet Jack Scagnetti
00:36:09.333 : en:Left Turn Into A Lover's Spat
00:38:37.648 : en:Demons Visit The Old Indians
00:42:37.221 : en:Demonic Dreams
00:45:51.248 : en:Two Snake Pits
00:49:32.469 : en:Drug Zone Desperados
00:53:33.043 : en:Catching The Big Bad Wolf
00:56:55.412 : en:Welcome To Batonga Penitentiary
01:02:28.578 : en:Born Bad
01:04:04.006 : en:Wayne's Pitch
01:07:59.408 : en:Love Letter
01:09:22.324 : en:Expert Opinion
01:12:14.830 : en:Dead Quiet On A Super Bowl Sunday
01:15:58.554 : en:Fate's Messenger On Violence
01:17:46.828 : en:'Only Love Can Kill The Demon'
01:21:16.705 : en:Mallory's Visitor
01:23:01.810 : en:The Purity of a Natural Born Killer
01:24:35.570 : en:Riot Breaks Out
01:26:05.493 : en:Armed and Dangerous
01:29:27.362 : en:Getting Sexy
01:31:59.514 : en:Live!!! Inside Batonga
01:32:56.237 : en:Together Again
01:35:00.695 : en:On The Loose...On Network TV
01:36:47.468 : en:Wayne Catches Bloodlust
01:39:28.629 : en:Owen and a Means of Escape
01:44:29.930 : en:Warden and His Charges
01:45:26.153 : en:Roadside Statement
01:51:04.658 : en:Other News Tonight
01:52:12.559 : en:End Credits
 

Вложения

  • 32,7 KB Просмотры: 0
    Личеров 0
    Сидеров 0
    Файлов 1
    Объем 12,7 GB

Привет!

Мы группа людей которые решили помочь другим в решении их проблем, а так же пользователям с поиском самых свежих и качественных инфопродуктов. За 4 с небольшим месяца мы создали этот форум на который заходят ежедневно тысячи человек и посещаемость постоянно растёт. Мы создали панель лицензирования для защиты PHP скриптов от воровства и SEO панель для мониторинга наших сайтов и выбора верной стратегии их развития. Мы надеемся что то что мы создали пригодится Вам и возможно Вы поможете нам развиваться и совершенствоваться вместе с Вами.

Статистика форума

Темы
406.678
Сообщения
465.125
Пользователи
84.737
Новый пользователь
Mo0dak

Приложения форума для iOS и Android


У ркн там нет власти ;)
Приватные разговоры
Помощь Пользователи
    Вы не присоединились ни к одной комнате.