За последнюю неделю опубликовано 35 новых материалов.
Инструкция новичку Путеводитель по форуму Прокси для Telegram Показать подсказки , это бомба!

Скачать Прирожденная наездница / Pistachio / Destined to Ride (2018) HDRip-AVC | L2 бесплатно через торрент

  • Поучаствуй (в качестве покупателя) в любых пяти совместных покупках (кроме завершённых и "Моментальных") и получи группу "Новичок" навсегда -> ссылка на раздел
  • Получай до 480 рублей за каждого приглашенного пользователя!
    представляем Вам очередное расширение партнерской программы, подробности описаны тут -> ссылка
  • 90% материалов доступно к скачиванию после простой регистрации!
    Если же ты хочешь скачивать материалы без требования оставлять отзывы то получи группу "Новичок", 10 способов повышения описаны тут -> ссылка
  • К сожалению количество битых ссылок растет и мы уже не можем их оперативно восстанавливать поэтому просим помощи у каждого нашего пользователя.
    С сегодняшнего дня, за каждую восстановленную ссылку мы заплатим Вам.
    Подробнее тут -> ссылка
  • Перенесем твои заслуги с другого ресурса!
    Мы понимаем как сложно прокачивать аккаунты на форумах, вроде раскачал аккаунт, а тут появляется ресурс в 100 раз круче но тоже с системой прокачки и снова качать аккаунт...
    Предлагаем вам перенести Ваши заслуги на другом подобном ресурсе к нам.
    Подробности описаны тут -> ссылка
  • Вы можете получать по 2.5% с каждой покупки и продажи на маркете! Подробности в теме Партнёрская программа
Если Вы не хотите скачивать, Вы всегда можетепосмотретьонлайн, просто нажмите кнопку ниже :

Открыть плеер

Torrent_Bot

Торрент-Бот
Бот форума
4 Окт 2016
93
160
20
Информация о фильме
Название: Прирожденная наездница
Оригинальное название: Pistachio / Destined to Ride
Год выхода: 2018
Жанр: Приключения, семейный
Режиссер: Анна Элизабет Джеймс
В ролях: Дэнис Ричардс, Мадлен Кэрролл, Джозеф Лоуренс, Ник Сирси, Касси Томсон, Грейс Джонстон, Эмбер Монтана, Маноло Гонзалес-Вергара, Оливия Джордан, Коннор Макрейт
О фильме:
Жизнь Лили переворачивается, когда ее силой увозят от друзей на удаленное ранчо к тетушке - любительнице природы. Несмотря на конец социальной жизни, она неожиданно встречает новых друзей и попадает в самое большое приключение своей жизни.



Страна: США, Taylor & Dodge
Продолжительность: 01:30:56
Перевод: Любительский (двухголосый закадровый) | HiWay Grope

Файл
Кодек: MPEG-4 AVC/x.264
Качество: HDRip-AVC
Видео: 720x400, 23.976 fps, ~1687 kbps, 0.244 bit/pixel
Звук:
Аудио rus: AC, 48 kHz, 2 ch, 192 Kbps
Субтитры: отсутствуют

Реклама: присутствует

Семпл

MediaInfo:
General
Unique ID : 281663153438083419645993657440148012678 (0xD3E659A304634419677C5563DE463E86)
Complete name : D:Destined.to.Ride.2018.HDRip-AVC.HiWayGropeDestined.to.Ride.2018.HDRip-AVC.HiWayGrope.mkv
Format : Matroska
Format version : Version 4 / Version 2
File size : 1.19 GiB
Duration : 1 h 30 min
Overall bit rate : 1 881 kb/s
Encoded date : UTC 2018-08-31 06:55:28
Writing application : mkvmerge v25.0.0 ('Prog Noir') 64-bit
Writing library : libebml v1.3.6 + libmatroska v1.4.9

Video
ID : 1
Format : AVC
Format/Info : Advanced Video Codec
Format profile : [email protected]
Format settings : CABAC / 4 Ref Frames
Format settings, CABAC : Yes
Format settings, RefFrames : 4 frames
Codec ID : V_MPEG4/ISO/AVC
Duration : 1 h 30 min
Bit rate : 1 687 kb/s
Width : 720 pixels
Height : 400 pixels
Display aspect ratio : 16:9
Frame rate mode : Constant
Frame rate : 23.976 (24000/1001) FPS
Standard : NTSC
Color space : YUV
Chroma subsampling : 4:2:0
Bit depth : 8 bits
Scan type : Progressive
Bits/(Pixel*Frame) : 0.244
Stream size : 1.07 GiB (90%)
Language : English
Default : Yes
Forced : No
Color range : Limited
Color primaries : BT.601 NTSC
Transfer characteristics : BT.601
Matrix coefficients : BT.601

Audio
ID : 2
Format : AC-3
Format/Info : Audio Coding 3
Codec ID : A_AC3
Duration : 1 h 30 min
Bit rate mode : Constant
Bit rate : 192 kb/s
Channel(s) : 2 channels
Channel positions : Front: L R
Sampling rate : 48.0 kHz
Frame rate : 31.250 FPS (1536 SPF)
Bit depth : 16 bits
Compression mode : Lossy
Stream size : 125 MiB (10%)
Language : Russian
Service kind : Complete Main
Default : Yes
Forced : No
Скриншоты
Релиз от: HiWay Grope
 

Вложения

  • 12,9 KB Просмотры: 1
    Личеров 0
    Сидеров 0
    Файлов 1
    Объем 1,2 GB

Привет!

Мы группа людей которые решили помочь другим в решении их проблем, а так же пользователям с поиском самых свежих и качественных инфопродуктов. За 4 с небольшим месяца мы создали этот форум на который заходят ежедневно тысячи человек и посещаемость постоянно растёт. Мы создали панель лицензирования для защиты PHP скриптов от воровства и SEO панель для мониторинга наших сайтов и выбора верной стратегии их развития. Мы надеемся что то что мы создали пригодится Вам и возможно Вы поможете нам развиваться и совершенствоваться вместе с Вами.

Статистика форума

Темы
406.609
Сообщения
465.049
Пользователи
84.415
Новый пользователь
BirBai

Приложения форума для iOS и Android


У ркн там нет власти ;)
Приватные разговоры
Помощь Пользователи
    Вы не присоединились ни к одной комнате.