За последнюю неделю опубликовано 65 новых материалов.
Инструкция новичку Путеводитель по форуму Прокси для Telegram Показать подсказки , это бомба!

Скачать Принцесса-невеста / The Princess Bride (1987) UHD BDRemux 2160p от селезень | 4K | HDR | P, P2, P1, A бесплатно через торрент

  • Поучаствуй (в качестве покупателя) в любых пяти совместных покупках (кроме завершённых и "Моментальных") и получи группу "Новичок" навсегда -> ссылка на раздел
  • Получай до 480 рублей за каждого приглашенного пользователя!
    представляем Вам очередное расширение партнерской программы, подробности описаны тут -> ссылка
  • 90% материалов доступно к скачиванию после простой регистрации!
    Если же ты хочешь скачивать материалы без требования оставлять отзывы то получи группу "Новичок", 10 способов повышения описаны тут -> ссылка
  • К сожалению количество битых ссылок растет и мы уже не можем их оперативно восстанавливать поэтому просим помощи у каждого нашего пользователя.
    С сегодняшнего дня, за каждую восстановленную ссылку мы заплатим Вам.
    Подробнее тут -> ссылка
  • Перенесем твои заслуги с другого ресурса!
    Мы понимаем как сложно прокачивать аккаунты на форумах, вроде раскачал аккаунт, а тут появляется ресурс в 100 раз круче но тоже с системой прокачки и снова качать аккаунт...
    Предлагаем вам перенести Ваши заслуги на другом подобном ресурсе к нам.
    Подробности описаны тут -> ссылка
  • Вы можете получать по 2.5% с каждой покупки и продажи на маркете! Подробности в теме Партнёрская программа
Если Вы не хотите скачивать, Вы всегда можетепосмотретьонлайн, просто нажмите кнопку ниже :

Открыть плеер

Torrent_Bot

Торрент-Бот
Бот форума
4 Окт 2016
92
160
20


Информация о фильме
Название: Принцесса невеста
Оригинальное название: The Princess Bride
Год выхода: 1987
Жанр: Фэнтези, мелодрама, комедия, приключения, семейный, экранизация
Режиссер: Роб Райнер
В ролях: Кэри Элвес, Робин Райт, Мэнди Пэтинкин, Крис Сарандон, Кристофер Гест, Уоллес Шон, Андре Гигант, Фред Сэвидж, Питер Фальк, Питер Кук, Мэл Смит, Кэрол Кэйн, Билли Кристал



О фильме: По мотивам одноимённого романа американского писателя Уильяма Голдмана. Добро пожаловать в фантастический мир прекрасных замков, жутких подземелий, бескрайних океанов, лесов и гор. Чтобы спасти свою возлюбленную, прекрасную невесту, отважный герой преодолевает немыслимые препятствия и совершает невероятные подвиги. Это по - настоящему захватывающая история! Сражения на шпагах! Пытки! Месть! Великаны! Злодеи! Прекрасные дамы! Чудовища всех мастей и размеров!

Страна: США
Студия: Act III Communications, Buttercup Films Ltd., The Princess Bride Ltd.
Продолжительность: 01:38:26
Перевод(ы):
#1: Профессиональный многоголосый | D2Lab
#2: Профессиональный двухголосый | Кинокомпания Селена Интернешнл по заказу ОРТ
#3: Авторский | Сергей Кузнецов
#4: Авторский | Санаев, Павел
#5: Профессиональный многоголосый | Кинокомпания Селена Интернешнл по заказу ТВ3
#6: Профессиональный одноголосый | Нурмухаметов, Данис Василович
#7: Авторский | Визгунов, Сергей
#8: Авторский | Гаврилов, Андрей Юрьевич
#9: Авторский | Сербин, Юрий Владимирович
#10: Авторский | Дольский, Андрей Игоревич

Качество: BDRemux 2160p
Видео: 3840x2160 at 23.976 fps, MPEG-H HEVC HDR Video, 57900 kbps avg
Аудио #01: Russian: 48 kHz, АС3, 6 ch, 448 kbps / 16-bit |MVO, D2Lab|
Аудио #02: Russian: 48 kHz, АС3, 2 ch, 192 kbps / 16-bit |DVO, Кинокомпания Селена Интернешнл по заказу ОРТ|
Аудио #03: Russian: 48 kHz, АС3, 2 ch, 224 kbps / 16-bit |Сергей Кузнецов|
Аудио #04: Russian: 48 kHz, АС3, 2 ch, 192 kbps / 16-bit |Санаев, Павел|
Аудио #05: Ukrainian: 48 kHz, АС3, 2 ch, 192 kbps / 16-bit |MVO, 1+1|
Аудио #06: Ukrainian: 48 kHz, АС3, 2 ch, 192 kbps / 16-bit |MVO, Новый канал|
Аудио #07: Russian: 48 kHz, DTS-HD MA, 1 ch, 1054 kbps 24-bit(DTS Core: 1.0 / 48 kHz / 768 kbps / 24-bit) |MVO, Кинокомпания Селена Интернешнл по заказу ТВ3|
Аудио #08: Russian: 48 kHz, DTS-HD MA, 6 ch, 3895 kbps 24-bit (DTS Core: 5.1 / 48 kHz / 1509 kbps / 24-bit) |Нурмухаметов, Данис Василович|
Аудио #09: Russian: 48 kHz, DTS-HD MA, 6 ch, 3895 kbps 24-bit (DTS Core: 5.1 / 48 kHz / 1509 kbps / 24-bit) |Визгунов, Сергей|
Аудио #10: Russian: 48 kHz, DTS-HD MA, 6 ch, 3884 kbps 24-bit (DTS Core: 5.1 / 48 kHz / 1509 kbps / 24-bit) |Гаврилов, Андрей Юрьевич|
Аудио #11: Russian: 48 kHz, DTS-HD MA, 6 ch, 3889 kbps 24-bit (DTS Core: 5.1 / 48 kHz / 1509 kbps / 24-bit) |Сербин, Юрий Владимирович|
Аудио #12: Russian: 48 kHz, DTS-HD MA, 6 ch, 3910 kbps 24-bit (DTS Core: 5.1 / 48 kHz / 1509 kbps / 24-bit) |Дольский, Андрей Игоревич|
Аудио #13: English: 48 kHz, DTS-HD MA, 6 ch, 1733 kbps 24-bit (DTS Core: 5.1 / 48 kHz / 1509 kbps / 24-bit) |Оригинал|
Субтитры: Русские (4 x Full), английские



MI
General
Unique ID : 226810300089082368324498533923748840133 (0xAAA2132A447F2E4BCE89AF57741802C5)
Complete name : D:Video222The.Princess.Bride.1987.BDREMUX.2160p.HDR.seleZen.mkv
Format : Matroska
Format version : Version 4
File size : 56.1 GiB
Duration : 1 h 38 min
Overall bit rate mode : Variable
Overall bit rate : 81.6 Mb/s
Movie name : The Princess Bride 1987 from селезень
Encoded date : UTC 2020-06-21 07:20:04
Writing application : mkvmerge v40.0.0 ('Old Town Road + Pony') 64-bit
Writing library : libebml v1.3.9 + libmatroska v1.5.2

Video
ID : 1
Format : HEVC
Format/Info : High Efficiency Video Coding
Format profile : Main [email protected]@High
HDR format : SMPTE ST 2094 App 4, Version 1, HDR10+ Profile B compatible
Codec ID : V_MPEGH/ISO/HEVC
Duration : 1 h 38 min
Bit rate : 57.9 Mb/s
Width : 3 840 pixels
Height : 2 160 pixels
Display aspect ratio : 16:9
Frame rate mode : Constant
Frame rate : 23.976 (24000/1001) FPS
Color space : YUV
Chroma subsampling : 4:2:0 (Type 2)
Bit depth : 10 bits
Bits/(Pixel*Frame) : 0.291
Stream size : 39.8 GiB (71%)
Language : English
Default : Yes
Forced : No
Color range : Limited
Color primaries : BT.2020
Transfer characteristics : PQ
Matrix coefficients : BT.2020 non-constant
Mastering display color pri : Display P3
Mastering display luminance : min: 0.0001 cd/m2, max: 1000 cd/m2
Maximum Content Light Level : 1000 cd/m2
Maximum Frame-Average Light : 400 cd/m2

Audio #1
ID : 2
Format : AC-3
Format/Info : Audio Coding 3
Commercial name : Dolby Digital
Codec ID : A_AC3
Duration : 1 h 38 min
Bit rate mode : Constant
Bit rate : 448 kb/s
Channel(s) : 6 channels
Channel layout : L R C LFE Ls Rs
Sampling rate : 48.0 kHz
Frame rate : 31.250 FPS (1536 SPF)
Compression mode : Lossy
Stream size : 315 MiB (1%)
Title : |MVO, D2Lab|
Language : Russian
Service kind : Complete Main
Default : Yes
Forced : Yes

Audio #2
ID : 3
Format : AC-3
Format/Info : Audio Coding 3
Commercial name : Dolby Digital
Codec ID : A_AC3
Duration : 1 h 38 min
Bit rate mode : Constant
Bit rate : 192 kb/s
Channel(s) : 2 channels
Channel layout : L R
Sampling rate : 48.0 kHz
Frame rate : 31.250 FPS (1536 SPF)
Compression mode : Lossy
Stream size : 135 MiB (0%)
Title : |DVO, кинокомпания Селена Интернешнл по заказу ОРТ|
Language : Russian
Service kind : Complete Main
Default : No
Forced : No

Audio #3
ID : 4
Format : AC-3
Format/Info : Audio Coding 3
Commercial name : Dolby Digital
Codec ID : A_AC3
Duration : 1 h 38 min
Bit rate mode : Constant
Bit rate : 224 kb/s
Channel(s) : 2 channels
Channel layout : L R
Sampling rate : 48.0 kHz
Frame rate : 31.250 FPS (1536 SPF)
Compression mode : Lossy
Stream size : 158 MiB (0%)
Title : |Сергей Кузнецов|
Language : Russian
Service kind : Complete Main
Default : No
Forced : No

Audio #4
ID : 5
Format : AC-3
Format/Info : Audio Coding 3
Commercial name : Dolby Digital
Codec ID : A_AC3
Duration : 1 h 38 min
Bit rate mode : Constant
Bit rate : 192 kb/s
Channel(s) : 2 channels
Channel layout : L R
Sampling rate : 48.0 kHz
Frame rate : 31.250 FPS (1536 SPF)
Compression mode : Lossy
Stream size : 135 MiB (0%)
Title : |Санаев, Павел|
Language : Russian
Service kind : Complete Main
Default : No
Forced : No

Audio #5
ID : 6
Format : AC-3
Format/Info : Audio Coding 3
Commercial name : Dolby Digital
Codec ID : A_AC3
Duration : 1 h 38 min
Bit rate mode : Constant
Bit rate : 192 kb/s
Channel(s) : 2 channels
Channel layout : L R
Sampling rate : 48.0 kHz
Frame rate : 31.250 FPS (1536 SPF)
Compression mode : Lossy
Stream size : 135 MiB (0%)
Title : |MVO, 1+1|
Language : Ukrainian
Service kind : Complete Main
Default : No
Forced : No

Audio #6
ID : 7
Format : AC-3
Format/Info : Audio Coding 3
Commercial name : Dolby Digital
Codec ID : A_AC3
Duration : 1 h 38 min
Bit rate mode : Constant
Bit rate : 192 kb/s
Channel(s) : 2 channels
Channel layout : L R
Sampling rate : 48.0 kHz
Frame rate : 31.250 FPS (1536 SPF)
Compression mode : Lossy
Stream size : 135 MiB (0%)
Title : |MVO, Новый канал|
Language : Ukrainian
Service kind : Complete Main
Default : No
Forced : No

Audio #7
ID : 8
Format : DTS XLL
Format/Info : Digital Theater Systems
Commercial name : DTS-HD Master Audio
Codec ID : A_DTS
Duration : 1 h 38 min
Bit rate mode : Variable
Bit rate : 1 053 kb/s
Channel(s) : 1 channel
Channel layout : C
Sampling rate : 48.0 kHz
Frame rate : 93.750 FPS (512 SPF)
Bit depth : 24 bits
Compression mode : Lossless
Stream size : 742 MiB (1%)
Title : |MVO, кинокомпания Селена Интернешнл по заказу ТВ3|
Language : Russian
Default : No
Forced : No

Audio #8
ID : 9
Format : DTS XLL
Format/Info : Digital Theater Systems
Commercial name : DTS-HD Master Audio
Codec ID : A_DTS
Duration : 1 h 38 min
Bit rate mode : Variable
Bit rate : 3 895 kb/s
Channel(s) : 6 channels
Channel layout : C L R Ls Rs LFE
Sampling rate : 48.0 kHz
Frame rate : 93.750 FPS (512 SPF)
Bit depth : 24 bits
Compression mode : Lossless
Stream size : 2.68 GiB (5%)
Title : |Нурмухаметов, Данис Василович|
Language : Russian
Default : No
Forced : No

Audio #9
ID : 10
Format : DTS XLL
Format/Info : Digital Theater Systems
Commercial name : DTS-HD Master Audio
Codec ID : A_DTS
Duration : 1 h 38 min
Bit rate mode : Variable
Bit rate : 3 895 kb/s
Channel(s) : 6 channels
Channel layout : C L R Ls Rs LFE
Sampling rate : 48.0 kHz
Frame rate : 93.750 FPS (512 SPF)
Bit depth : 24 bits
Compression mode : Lossless
Stream size : 2.68 GiB (5%)
Title : |Визгунов, Сергей|
Language : Russian
Default : No
Forced : No

Audio #10
ID : 11
Format : DTS XLL
Format/Info : Digital Theater Systems
Commercial name : DTS-HD Master Audio
Codec ID : A_DTS
Duration : 1 h 38 min
Bit rate mode : Variable
Bit rate : 3 884 kb/s
Channel(s) : 6 channels
Channel layout : C L R Ls Rs LFE
Sampling rate : 48.0 kHz
Frame rate : 93.750 FPS (512 SPF)
Bit depth : 24 bits
Compression mode : Lossless
Stream size : 2.67 GiB (5%)
Title : |Гаврилов, Андрей Юрьевич|
Language : Russian
Default : No
Forced : No

Audio #11
ID : 12
Format : DTS XLL
Format/Info : Digital Theater Systems
Commercial name : DTS-HD Master Audio
Codec ID : A_DTS
Duration : 1 h 38 min
Bit rate mode : Variable
Bit rate : 3 889 kb/s
Channel(s) : 6 channels
Channel layout : C L R Ls Rs LFE
Sampling rate : 48.0 kHz
Frame rate : 93.750 FPS (512 SPF)
Bit depth : 24 bits
Compression mode : Lossless
Stream size : 2.67 GiB (5%)
Title : |Сербин, Юрий Владимирович|
Language : Russian
Default : No
Forced : No

Audio #12
ID : 13
Format : DTS XLL
Format/Info : Digital Theater Systems
Commercial name : DTS-HD Master Audio
Codec ID : A_DTS
Duration : 1 h 38 min
Bit rate mode : Variable
Bit rate : 3 910 kb/s
Channel(s) : 6 channels
Channel layout : C L R Ls Rs LFE
Sampling rate : 48.0 kHz
Frame rate : 93.750 FPS (512 SPF)
Bit depth : 24 bits
Compression mode : Lossless
Stream size : 2.69 GiB (5%)
Title : |Дольский, Андрей Игоревич|
Language : Russian
Default : No
Forced : No

Audio #13
ID : 14
Format : DTS XLL
Format/Info : Digital Theater Systems
Commercial name : DTS-HD Master Audio
Codec ID : A_DTS
Duration : 1 h 38 min
Bit rate mode : Variable
Bit rate : 1 733 kb/s
Channel(s) : 6 channels
Channel layout : C L R Ls Rs LFE
Sampling rate : 48.0 kHz
Frame rate : 93.750 FPS (512 SPF)
Bit depth : 16 bits
Compression mode : Lossless
Stream size : 1.19 GiB (2%)
Title : Original
Language : English
Default : No
Forced : No

Text #1
ID : 15
Format : UTF-8
Codec ID : S_TEXT/UTF8
Codec ID/Info : UTF-8 Plain Text
Duration : 1 h 33 min
Bit rate : 101 b/s
Count of elements : 1206
Stream size : 69.6 KiB (0%)
Title : MVO, D2Lab_full
Language : Russian
Default : No
Forced : No

Text #2
ID : 16
Format : UTF-8
Codec ID : S_TEXT/UTF8
Codec ID/Info : UTF-8 Plain Text
Duration : 1 h 33 min
Bit rate : 114 b/s
Count of elements : 1119
Stream size : 78.0 KiB (0%)
Title : ЯФ601_full
Language : Russian
Default : No
Forced : No

Text #3
ID : 17
Format : UTF-8
Codec ID : S_TEXT/UTF8
Codec ID/Info : UTF-8 Plain Text
Duration : 1 h 33 min
Bit rate : 114 b/s
Count of elements : 1170
Stream size : 78.3 KiB (0%)
Title : Злотин, Григорий_full
Language : Russian
Default : No
Forced : No

Text #4
ID : 18
Format : UTF-8
Codec ID : S_TEXT/UTF8
Codec ID/Info : UTF-8 Plain Text
Duration : 1 h 33 min
Bit rate : 122 b/s
Count of elements : 1412
Stream size : 83.5 KiB (0%)
Title : Гнесь Вадим_Vatson1972_full
Language : Russian
Default : No
Forced : No

Text #5
ID : 19
Format : UTF-8
Codec ID : S_TEXT/UTF8
Codec ID/Info : UTF-8 Plain Text
Duration : 1 h 32 min
Bit rate : 66 b/s
Count of elements : 1230
Stream size : 45.3 KiB (0%)
Title : Full
Language : English
Default : No
Forced : No

Text #6
ID : 20
Format : UTF-8
Codec ID : S_TEXT/UTF8
Codec ID/Info : UTF-8 Plain Text
Duration : 1 h 37 min
Bit rate : 68 b/s
Count of elements : 1341
Stream size : 48.8 KiB (0%)
Title : SDH
Language : English
Default : No
Forced : No

Menu
00:00:00.000 : en:Main Title / Grandpa's Visit
00:02:18.940 : en:A Kissing Book
00:05:46.648 : en:Humperdinck's Bride
00:07:28.833 : en:Three Circus Performers
00:10:04.906 : en:The Shrieking Eels
00:13:28.776 : en:Up a Cliff
00:17:26.138 : en:The Chatty Duelists
00:21:48.025 : en:"I Hate to Kill You" / "I Hate to Die"
00:25:09.518 : en:"Finish Him Your Way"
00:29:33.406 : en:A Battle of Wits
00:35:00.566 : en:Taker of Love & Lies
00:40:36.068 : en:In the Fire Swamp
00:45:05.588 : en:The R.O.U.S.s
00:48:13.859 : en:Conditional Surrender
00:50:32.414 : en:The Pit of Despair
00:52:13.598 : en:Queen of Garbage
00:54:50.294 : en:Alternative to Suicide
00:57:29.623 : en:The Suction Machine
01:00:36.434 : en:A New Alliance
01:03:49.002 : en:...Like a King Scorned
01:07:04.572 : en:Where is Westley?
01:10:11.342 : en:Miracle Max
01:14:36.857 : en:A Plan!
01:17:55.347 : en:"Mawwiage!"
01:21:06.413 : en:"Prepare to Die!"
01:24:39.956 : en:"Gently!"
01:25:35.261 : en:On His Last Legs
01:27:29.504 : en:Bluffing
01:33:43.581 : en:End Credits

Релиз от:

 

Вложения

  • 71,1 KB Просмотры: 0
    Личеров 0
    Сидеров 0
    Файлов 1
    Объем 56,1 GB

Привет!

Мы группа людей которые решили помочь другим в решении их проблем, а так же пользователям с поиском самых свежих и качественных инфопродуктов. За 4 с небольшим месяца мы создали этот форум на который заходят ежедневно тысячи человек и посещаемость постоянно растёт. Мы создали панель лицензирования для защиты PHP скриптов от воровства и SEO панель для мониторинга наших сайтов и выбора верной стратегии их развития. Мы надеемся что то что мы создали пригодится Вам и возможно Вы поможете нам развиваться и совершенствоваться вместе с Вами.

Статистика форума

Темы
406.658
Сообщения
465.103
Пользователи
84.685
Новый пользователь
глоитпоа

Приложения форума для iOS и Android


У ркн там нет власти ;)
Приватные разговоры
Помощь Пользователи
    Вы не присоединились ни к одной комнате.